<?xml version="1.0" standalone="no"?>
<!DOCTYPE svg PUBLIC "-//W3C//DTD SVG 1.1//EN" "http://www.w3.org/Graphics/SVG/1.1/DTD/svg11.dtd" >
<svg xmlns="http://www.w3.org/2000/svg" xmlns:xlink="http://www.w3.org/1999/xlink" version="1.1">
<metadata>
Created by FontForge 20190801 at Sun Aug 19 16:34:05 2018
 By www-data
Copyright (c) 2016 Swiss Typefaces Sarl. All rights reserved. |DCNT
</metadata>
<defs>
<font id="SuisseIntlRegular" horiz-adv-x="0" >
  <font-face 
    font-family="SuisseIntlRegular"
    font-weight="400"
    font-stretch="normal"
    units-per-em="1000"
    panose-1="2 11 5 4 0 0 0 0 0 0"
    ascent="750"
    descent="-250"
    x-height="538"
    cap-height="725"
    bbox="-211 -649 2813 1121"
    underline-thickness="70"
    underline-position="-110"
    unicode-range="U+0020-FEFC"
  />
<missing-glyph horiz-adv-x="500" 
d="M0 0v725h500v-725h-500zM239 362l-220 334v-667zM260 362l221 -333v667zM250 346l-217 -327h433zM33 706l217 -328l216 328h-433z" />
    <glyph glyph-name="uniFC43" unicode="&#xfedf;&#xfef0;" horiz-adv-x="865" arabic-form="isolated" 
d="M695 725h85v-534q0 -87 -51 -140q-26 -26 -64 -39q-43 -105 -124 -163q-86 -64 -228 -64q-131 0 -202 69t-71 203q0 95 45 228h80q-45 -116 -45 -213q0 -102 52.5 -149.5t159.5 -47.5q100 0 170 44q48 31 76 81h-2h-150l15 90h135q65 0 92 25t27 79v531z" />
    <glyph glyph-name="uniFC86" unicode="&#xfee0;&#xfef0;" horiz-adv-x="894" arabic-form="final" 
d="M689 725h85v-531q0 -54 27.5 -79t91.5 -25q10 0 10 -10v-69q0 -11 -10 -11q-103 0 -154 51q-8 8 -11 13l-10 -10q-14 -14 -37 -28l-14 -8q-42 -107 -126 -169q-86 -64 -228 -64q-131 0 -202 69t-71 203q0 95 45 228h80q-45 -116 -45 -213q0 -102 52.5 -149.5t159.5 -47.5
q100 0 170 44q48 31 76 81h-2h-150l15 90h135q41 0 75 14q28 11 45 26q-7 27 -7 61v534z" />
    <glyph glyph-name="uniFEF5" unicode="&#xfedf;&#xfe82;" horiz-adv-x="589" arabic-form="isolated" 
d="M365 775h85v-237q0 -76 -21 -141q-2 -8 -14 -38l50 -45q89 -82 89 -159q0 -67 -45.5 -111t-135.5 -44h-314l-39 90q188 111 257 195q18 21 38 53l-277 252l4 10h106l201 -182q16 52 16 120v237zM366 275q-43 -58 -106 -108q-47 -37 -117 -77h249q36 0 56.5 17.5
t20.5 45.5q0 46 -51 92l-45 40q-6 -9 -7 -10zM70 763q22 0 63.5 -18.5t63.5 -18.5q45 0 80 26l-1 -66q-33 -25 -77 -25q-23 0 -60.5 18.5t-56.5 18.5q-43 0 -49 -39h-55q0 45 24.5 74.5t67.5 29.5z" />
    <glyph glyph-name="uniFEF6" unicode="&#xfee0;&#xfe82;" horiz-adv-x="673" arabic-form="final" 
d="M469 725h85v-531q0 -54 27.5 -79t91.5 -25q10 0 10 -10v-69q0 -11 -10 -11q-103 0 -154 51l-3 3q-21 -10 -43 -17q-102 -37 -207 -37q-138 0 -241 34v85q50 -15 120 -23q59 -6 111 -6q-1 9 -1 25q-2 27 -6 55q-4 25 -12.5 63.5t-33.5 146t-51 220.5h90q80 -360 88 -420
q5 -24 3 -53q0 -22 -1 -35q26 1 65 7q42 6 83 18q-11 35 -11 74v534zM145 766q23 0 64 -18.5t63 -18.5q45 0 80 26l-1 -66q-33 -25 -77 -25q-23 0 -60.5 18.5t-56.5 18.5q-43 0 -49 -39h-55q0 45 24.5 74.5t67.5 29.5z" />
    <glyph glyph-name="uniFEF7" unicode="&#xfedf;&#xfe84;" horiz-adv-x="589" arabic-form="isolated" 
d="M365 775h85v-237q0 -76 -21 -141q-2 -8 -14 -38l50 -45q89 -82 89 -159q0 -67 -45.5 -111t-135.5 -44h-314l-39 90q188 111 257 195q18 21 38 53l-277 252l4 10h106l201 -182q16 52 16 120v237zM366 275q-43 -58 -106 -108q-47 -37 -117 -77h249q36 0 56.5 17.5
t20.5 45.5q0 46 -51 92l-45 40q-6 -9 -7 -10zM122 724h109l-18 -60h-162q-37 0 -75 -12v58q28 10 40 11l30 3l-8 10q-15 22 -15 47q0 39 27 64.5t67 25.5q32 0 76 -20v-58q-39 15 -63 15q-22 0 -36 -11.5t-14 -31.5q0 -17 13 -29q12 -10 29 -12z" />
    <glyph glyph-name="uniFEF8" unicode="&#xfee0;&#xfe84;" horiz-adv-x="673" arabic-form="final" 
d="M469 725h85v-531q0 -54 27.5 -79t91.5 -25q10 0 10 -10v-69q0 -11 -10 -11q-103 0 -154 51l-3 3q-21 -10 -43 -17q-102 -37 -207 -37q-138 0 -241 34v85q50 -15 120 -23q59 -6 111 -6q-1 9 -1 25q-2 27 -6 55q-4 25 -12.5 63.5t-33.5 146t-51 220.5h90q80 -360 88 -420
q5 -24 3 -53q0 -22 -1 -35q26 1 65 7q42 6 83 18q-11 35 -11 74v534zM203 724h109l-18 -60h-162q-37 0 -75 -12v58q28 10 39 11l31 3l-9 10q-14 23 -14 47q0 39 27 64.5t67 25.5q32 0 76 -20v-58q-39 15 -63 15q-22 0 -36 -11.5t-14 -31.5q0 -17 13 -29q12 -10 29 -12z" />
    <glyph glyph-name="uniFEF9" unicode="&#xfedf;&#xfe88;" horiz-adv-x="589" arabic-form="isolated" 
d="M365 775h85v-237q0 -76 -21 -141q-2 -8 -14 -38l50 -45q89 -82 89 -159q0 -67 -45.5 -111t-135.5 -44h-314l-39 90q188 111 257 195q18 21 38 53l-277 252l4 10h106l201 -182q16 52 16 120v237zM366 275q-43 -58 -106 -108q-47 -37 -117 -77h249q36 0 56.5 17.5
t20.5 45.5q0 46 -51 92l-45 40q-6 -9 -7 -10zM316 -196h110l-18 -60h-162q-37 0 -75 -12v58q26 9 40 12q16 2 30 2l-9 11q-15 21 -15 46q0 39 27 64t67 25q35 0 76 -19v-58q-42 15 -63 15q-22 0 -36 -12t-14 -31q0 -17 14 -29q12 -11 28 -12z" />
    <glyph glyph-name="uniFEFA" unicode="&#xfee0;&#xfe88;" horiz-adv-x="673" arabic-form="final" 
d="M469 725h85v-531q0 -54 27.5 -79t91.5 -25q10 0 10 -10v-69q0 -11 -10 -11q-103 0 -154 51l-3 3q-21 -10 -43 -17q-102 -37 -207 -37q-138 0 -241 34v85q50 -15 120 -23q59 -6 111 -6q-1 9 -1 25q-2 27 -6 55q-4 25 -12.5 63.5t-33.5 146t-51 220.5h90q80 -360 88 -420
q5 -24 3 -53q0 -22 -1 -35q26 1 65 7q42 6 83 18q-11 35 -11 74v534zM311 -197h105l-18 -60h-162q-37 0 -75 -12v58q25 9 39 12q18 2 30 2l-9 11q-14 22 -14 46q0 39 27 64t67 25q35 0 76 -19v-58q-42 15 -63 15q-22 0 -36 -12t-14 -31q0 -17 13.5 -29t33.5 -12z" />
    <glyph glyph-name="uniFEFB" unicode="&#xfedf;&#xfe8e;" horiz-adv-x="589" arabic-form="isolated" 
d="M365 775h85v-237q0 -76 -21 -141q-2 -8 -14 -38l50 -45q89 -82 89 -159q0 -67 -45.5 -111t-135.5 -44h-314l-39 90q188 111 257 195q18 21 38 53l-277 252l4 10h106l201 -182q16 52 16 120v237zM366 275q-43 -58 -106 -108q-47 -37 -117 -77h249q36 0 56.5 17.5
t20.5 45.5q0 46 -51 92l-45 40q-6 -9 -7 -10z" />
    <glyph glyph-name="uniFEFC" unicode="&#xfee0;&#xfe8e;" horiz-adv-x="673" arabic-form="final" 
d="M469 725h85v-531q0 -54 27.5 -79t91.5 -25q10 0 10 -10v-69q0 -11 -10 -11q-103 0 -154 51l-3 3q-21 -10 -43 -17q-102 -37 -207 -37q-138 0 -241 34v85q50 -15 120 -23q59 -6 111 -6q-1 9 -1 25q-2 27 -6 55q-4 25 -12.5 63.5t-33.5 146t-51 220.5h90q80 -360 88 -420
q5 -24 3 -53q0 -22 -1 -35q26 1 65 7q42 6 83 18q-11 35 -11 74v534z" />
    <glyph glyph-name="uni0407_uni0407" unicode="&#x407;&#x407;" horiz-adv-x="501" 
d="M198 725v-725h-102v725h102zM405 725v-725h-102v725h102zM401 880h91v-99h-91v99zM205 880h91v-99h-91v99zM10 880h91v-99h-91v99z" />
    <glyph glyph-name="uni0457_uni0457" unicode="&#x457;&#x457;" horiz-adv-x="446" 
d="M278 538h91v-538h-91v538zM77 538h91v-538h-91v538zM-21 725h91v-99h-91v99zM177 725h91v-99h-91v99zM377 725h91v-99h-91v99z" />
    <glyph glyph-name="uniFEDF_uniFB51" unicode="&#xfedf;&#xfb51;" horiz-adv-x="589" 
d="M365 775h85v-237q0 -76 -21 -141q-2 -8 -14 -38l50 -45q89 -82 89 -159q0 -67 -45.5 -111t-135.5 -44h-314l-39 90q188 111 257 195q18 21 38 53l-277 252l4 10h106l201 -182q16 52 16 120v237zM366 275q-43 -58 -106 -108q-47 -37 -117 -77h249q36 0 56.5 17.5
t20.5 45.5q0 46 -51 92l-45 40q-6 -9 -7 -10zM189 831q39 0 65 -25t26 -63q0 -48 -39.5 -74t-113.5 -26q-67 0 -144 30l18 54q6 -3 38 -13q45 59 77 86q35 31 73 31zM125 703q87 0 87 40q0 13 -10 21t-24 8q-31 0 -77 -49l-16 -18q30 -2 40 -2z" />
    <glyph glyph-name="uniFEE0_uniFB51" unicode="&#xfee0;&#xfb51;" horiz-adv-x="673" 
d="M469 725h85v-531q0 -54 27.5 -79t91.5 -25q10 0 10 -10v-69q0 -11 -10 -11q-103 0 -154 51l-3 3q-21 -10 -43 -17q-102 -37 -207 -37q-138 0 -241 34v85q50 -15 120 -23q59 -6 111 -6q-1 9 -1 25q-2 27 -6 55q-4 25 -12.5 63.5t-33.5 146t-51 220.5h90q80 -360 88 -420
q5 -24 3 -53q0 -22 -1 -35q26 1 65 7q42 6 83 18q-11 35 -11 74v534zM242 834q39 0 65 -25t26 -63q0 -48 -39.5 -74t-113.5 -26q-68 0 -144 30l18 54q17 -7 38 -13q45 59 77 86q35 31 73 31zM178 706q87 0 87 40q0 13 -10 21t-24 8q-31 0 -77 -49q-11 -11 -16 -18
q28 -2 40 -2z" />
    <glyph glyph-name="uni066E.init" unicode="&#x66e;" horiz-adv-x="259" 
d="M89 485h85q30 -210 30 -294q0 -90 -51.5 -140.5t-152.5 -50.5q-10 0 -10 11v69q0 10 10 10q65 0 93.5 25t28.5 79q0 67 -33 291z" />
    <glyph glyph-name="uni066E.medi" unicode="&#x66e;" horiz-adv-x="300" 
d="M127 370h78q0 -106 -10 -170q-8 -44 -19 -77l10 -6q50 -27 114 -27q10 0 10 -10v-69q0 -11 -10 -11q-55 0 -101 20q-32 15 -59 38q-19 -22 -43 -35q-41 -23 -97 -23q-10 0 -10 11v69q0 10 10 10q74 0 101 54q26 56 26 226z" />
    <glyph glyph-name="uni066E.fina" unicode="&#x66e;" horiz-adv-x="837" 
d="M664 370h78q0 -106 -10 -170q-8 -44 -19 -77l10 -6q50 -27 114 -27q10 0 10 -10v-69q0 -11 -10 -11q-55 0 -101 20q-32 15 -59 38q-19 -22 -43 -35q-32 -18 -79 -23h-4h-258q-121 0 -187 59t-66 170q0 79 30 211h80q-25 -124 -25 -190q0 -84 43 -122t144 -38h225
q74 0 101 54q26 56 26 226z" />
    <glyph glyph-name="uni066F.fina" unicode="&#x66f;" horiz-adv-x="760" 
d="M494 475q86 0 139 -57t59 -158q0 -7 1.5 -42t2.5 -58l3 -70h61q10 0 10 -10v-69q0 -11 -10 -11h-62q-4 -33 -20 -66q-34 -71 -117 -110t-208 -39q-149 0 -231 67.5t-82 204.5q0 95 45 228h80q-45 -116 -45 -213q0 -101 63 -149.5t198 -48.5q83 0 140.5 26.5t81.5 70.5
q5 9 11 29h-80q-122 0 -191 61t-69 171q0 105 61.5 174t158.5 69zM610 200l-3 50q-5 66 -35.5 100.5t-82.5 34.5q-57 0 -93.5 -42.5t-36.5 -106.5q0 -72 46.5 -109t134.5 -37h77l-3 54q-2 38 -4 56z" />
    <glyph glyph-name="uni06A1.init" unicode="&#x6a1;" horiz-adv-x="521" 
d="M262 485q91 0 152.5 -65t61.5 -161q0 -120 -71.5 -189.5t-194.5 -69.5h-210q-10 1 -10 11v69q0 10 10 10h111q-9 19 -27 46q-45 71 -45 140q0 87 64.5 148t158.5 61zM195 90h24q79 0 125 41t46 117q0 65 -37.5 105.5t-98.5 40.5q-56 0 -93 -37t-37 -92q0 -45 36 -107
q16 -27 25 -47z" />
    <glyph glyph-name="uni06A1.medi" unicode="&#x6a1;" horiz-adv-x="544" 
d="M272 485q93 0 155 -62.5t62 -157.5q0 -68 -44 -124q-17 -22 -46 -46l34 -2q55 -3 111 -3q10 0 10 -10v-69q0 -11 -10 -11q-79 0 -171 14q-52 7 -97 21q-49 -16 -102 -23q-87 -12 -174 -12q-10 1 -10 11v69q0 10 10 10q56 0 107 3l33 2q-22 18 -43 42q-43 55 -43 127
q0 94 63 157.5t155 63.5zM368 162q35 43 35 96q0 60 -37.5 98.5t-96.5 38.5q-56 0 -93 -37.5t-37 -99.5q0 -53 33 -95q34 -42 92 -61q69 19 104 60z" />
    <glyph glyph-name="uni06A1.fina" unicode="&#x6a1;" horiz-adv-x="964" 
d="M692 485q93 0 155 -62.5t62 -157.5q0 -68 -44 -124q-17 -22 -46 -46l34 -2q55 -3 111 -3q10 0 10 -10v-69q0 -11 -10 -11q-79 0 -171 14q-52 7 -97 21q-49 -16 -102 -23q-87 -12 -174 -12q-10 1 -10 11v69q0 10 10 10q56 0 107 3l33 2q-22 18 -43 42q-43 55 -43 127
q0 94 63 157.5t155 63.5zM788 162q35 43 35 96q0 60 -37.5 98.5t-96.5 38.5q-56 0 -93 -37.5t-37 -99.5q0 -53 33 -95q34 -42 92 -61q69 19 104 60zM61 388h80q-16 -87 -16 -138q0 -84 43 -122t144 -38h118q10 0 10 -10v-69q0 -11 -10 -11h-137q-121 0 -187 59t-66 169
q0 72 21 160z" />
    <glyph glyph-name="uni06AA.init" unicode="&#x6aa;" horiz-adv-x="801" 
d="M274 725h113l-267 -295h392q111 0 177.5 -58.5t66.5 -159.5q0 -94 -61.5 -153t-159.5 -59h-535q-10 0 -10 11v69q0 10 10 10h523q69 0 108.5 31.5t39.5 88.5q0 63 -40 96.5t-114 33.5h-444l-50 90z" />
    <glyph glyph-name="uni06AA.medi" unicode="&#x6aa;" horiz-adv-x="851" 
d="M274 725h113l-267 -295h392q111 0 177.5 -58.5t66.5 -159.5q0 -94 -61.5 -153t-159.5 -59h-535q-10 0 -10 11v69q0 10 10 10h523q69 0 108.5 31.5t39.5 88.5q0 63 -40 96.5t-114 33.5h-444l-50 90zM656 93l44 50q40 -31 72.5 -42t78.5 -11q10 0 10 -10v-69q0 -11 -10 -11
q-57 0 -102 21t-93 72z" />
    <glyph glyph-name="uni06AA.fina" unicode="&#x6aa;" horiz-adv-x="949" 
d="M375 725h113l-267 -295h392q111 0 177.5 -58.5t66.5 -159.5q0 -94 -61.5 -153t-159.5 -59h-399q-65 0 -112 16.5t-103 57.5l44 73q47 -32 85.5 -44.5t85.5 -12.5h387q69 0 108.5 31.5t39.5 88.5q0 63 -40 96.5t-114 33.5h-444l-50 90zM754 93l44 50q40 -31 72.5 -42
t78.5 -11q10 0 10 -10v-69q0 -11 -10 -11q-57 0 -102 21t-93 72z" />
    <glyph glyph-name="uni06C2.fina" unicode="&#x6c2;" horiz-adv-x="536" 
d="M362 538h85v-357q0 -47 20 -69t69 -22q10 0 10 -10v-69q0 -11 -10 -11q-87 0 -131 50q-34 -19 -75 -35q-42 -15 -88 -15q-90 0 -146 53t-56 139q0 70 42 134.5t136 108.5q58 27 144 39v64zM283 374q-75 -24 -116.5 -69.5t-41.5 -105.5q0 -51 32 -80t87 -29q36 0 74 8
q27 6 53 18q-9 31 -9 73v204q-44 -8 -79 -19zM415 661h109l-18 -60h-162q-37 0 -75 -12v58q28 10 40 11l30 3l-8 10q-15 22 -15 47q0 39 27 64.5t67 25.5q32 0 76 -20v-58q-39 15 -63 15q-22 0 -36 -11.5t-14 -31.5q0 -17 13 -29q12 -10 29 -12z" />
    <glyph glyph-name="uni06C3.fina" unicode="&#x6c3;" horiz-adv-x="620" 
d="M297 430q67 0 110 -43.5t91 -150.5q37 -87 60 -113q27 -33 62 -33q10 0 10 -10v-69q0 -11 -10 -11q-64 0 -109 43t-84 144q-32 85 -59 119t-71 34t-77.5 -37.5t-75.5 -132.5l-37 -84l-72 34l37 84q54 123 105 174.5t120 51.5zM144 596l75 76l76 -74l75 74l76 -76l-76 -75
l-75 73l-75 -73z" />
    <glyph glyph-name="uniFB51" unicode="&#x671;" horiz-adv-x="289" arabic-form="final" 
d="M85 600h85v-406q0 -54 27.5 -79t91.5 -25q10 0 10 -10v-69q0 -11 -10 -11q-101 0 -152.5 50.5t-51.5 140.5v409zM180 813q39 0 65 -25t26 -63q0 -48 -39.5 -74t-113.5 -26q-68 0 -144 30l18 54q6 -3 38 -13q45 59 77 86q35 31 73 31zM116 685q87 0 87 40q0 13 -10 21
t-24 8q-31 0 -77 -49l-16 -18q30 -2 40 -2z" />
    <glyph glyph-name="uniFB57" unicode="&#x67e;" horiz-adv-x="837" arabic-form="final" 
d="M664 370h78q0 -106 -10 -170q-8 -44 -19 -77l10 -6q50 -27 114 -27q10 0 10 -10v-69q0 -11 -10 -11q-55 0 -101 20q-32 15 -59 38q-19 -22 -43 -35q-32 -18 -80 -23h-3h-14h-3h-241q-121 0 -187 59t-66 170q0 79 30 211h80q-25 -124 -25 -190q0 -84 43 -122t144 -38h222
h3q74 0 101 54q26 56 26 226zM437 -151l77 75l76 -75l-76 -77zM274 -151l75 75l77 -75l-76 -77zM373 -274l60 61l61 -61l-60 -60z" />
    <glyph glyph-name="uniFB58" unicode="&#x67e;" horiz-adv-x="333" arabic-form="initial" 
d="M167 485h85q30 -210 30 -294q0 -90 -51.5 -140.5t-152.5 -50.5h-78q-10 0 -10 11v69q0 10 10 10h78q64 0 92.5 25t28.5 79q0 74 -32 291zM134 -148l77 75l76 -75l-76 -77zM70 -271l60 61l61 -61l-60 -60zM-29 -148l75 75l77 -75l-76 -77z" />
    <glyph glyph-name="uniFB59" unicode="&#x67e;" horiz-adv-x="370" arabic-form="medial" 
d="M156 370h79q0 -96 -8 -165q-4 -33 -12 -62q34 -25 69 -38q40 -15 86 -15q10 0 10 -10v-69q0 -11 -10 -11q-98 0 -185 78q-25 -34 -63 -53q-49 -25 -122 -25q-10 0 -10 11v69q0 10 10 10q98 0 129 53q17 28 22 76t5 151zM168 -150l77 75l76 -75l-76 -77zM104 -273l60 61
l61 -61l-60 -60zM5 -150l75 75l77 -75l-76 -77z" />
    <glyph glyph-name="uniFB67" unicode="&#x679;" horiz-adv-x="837" arabic-form="final" 
d="M664 370h78q0 -106 -10 -170q-8 -44 -19 -77l10 -6q50 -27 114 -27q10 0 10 -10v-69q0 -11 -10 -11q-55 0 -101 20q-32 15 -59 38q-19 -22 -43 -35q-32 -18 -79 -23h-4h-14h-3h-241q-121 0 -187 59t-66 170q0 79 30 211h80q-25 -124 -25 -190q0 -84 43 -122t144 -38h222
h3h7q69 2 94 54q26 56 26 226zM345 670h55v-96l-3 -13q71 77 125 77q42 0 70 -26t28 -65q0 -50 -48 -78.5t-131 -28.5h-126l-33 58h63v172zM393 498h46q114 0 114 49q0 15 -12 24.5t-32 9.5t-41 -14.5t-56 -49.5z" />
    <glyph glyph-name="uniFB68" unicode="&#x679;" horiz-adv-x="380" arabic-form="initial" 
d="M167 485h85q30 -210 30 -294q0 -90 -51.5 -140.5t-152.5 -50.5h-78q-10 0 -10 11v69q0 10 10 10h78q64 0 92.5 25t28.5 79q0 74 -32 291zM80 768h55v-96l-2 -13q71 77 124 77q42 0 70 -26t28 -65q0 -50 -48 -78.5t-131 -28.5h-126l-33 58h63v172zM129 596h45
q114 0 114 49q0 15 -12 24.5t-32 9.5q-35 0 -96 -64z" />
    <glyph glyph-name="uniFB69" unicode="&#x679;" horiz-adv-x="370" arabic-form="medial" 
d="M156 370h79q0 -96 -8 -165q-4 -33 -12 -62q34 -25 69 -38q40 -15 86 -15q10 0 10 -10v-69q0 -11 -10 -11q-98 0 -185 78q-25 -34 -63 -53q-49 -25 -122 -25q-10 0 -10 11v69q0 10 10 10q98 0 129 53q17 28 22 76t5 151zM80 671h55v-96l-2 -13q71 77 124 77q42 0 70 -26
t28 -65q0 -50 -48 -78.5t-131 -28.5h-126l-33 58h63v172zM129 499h45q114 0 114 49q0 15 -12 24.5t-32 9.5q-35 0 -96 -64z" />
    <glyph glyph-name="uniFB6B" unicode="&#x6a4;" horiz-adv-x="964" arabic-form="final" 
d="M692 485q93 0 155 -62.5t62 -157.5q0 -68 -44 -124q-17 -22 -46 -46l34 -2q55 -3 111 -3q10 0 10 -10v-69q0 -11 -10 -11q-79 0 -171 14q-52 7 -97 21q-49 -16 -102 -23q-87 -12 -174 -12q-10 1 -10 11v69q0 10 10 10q56 0 107 3l33 2q-22 18 -43 42q-43 55 -43 127
q0 94 63 157.5t155 63.5zM788 162q35 43 35 96q0 60 -37.5 98.5t-96.5 38.5q-56 0 -93 -37.5t-37 -99.5q0 -53 33 -95q34 -42 92 -61q69 19 104 60zM61 388h80q-16 -87 -16 -138q0 -84 43 -122t144 -38h118q10 0 10 -10v-69q0 -11 -10 -11h-137q-121 0 -187 59t-66 169
q0 72 21 160zM698 635l77 77l76 -77l-76 -75zM535 635l75 77l77 -77l-76 -75zM633 756l60 61l61 -61l-60 -60z" />
    <glyph glyph-name="uniFB6C" unicode="&#x6a4;" horiz-adv-x="521" arabic-form="initial" 
d="M262 485q91 0 152.5 -65t61.5 -161q0 -120 -71.5 -189.5t-194.5 -69.5h-210q-10 1 -10 11v69q0 10 10 10h111q-9 19 -27 46q-45 71 -45 140q0 87 64.5 148t158.5 61zM195 90h24q79 0 125 41t46 117q0 65 -37.5 105.5t-98.5 40.5q-56 0 -93 -37t-37 -92q0 -45 36 -107
q16 -27 25 -47zM275 635l77 77l76 -77l-76 -75zM112 635l75 77l77 -77l-76 -75zM210 756l60 61l61 -61l-60 -60z" />
    <glyph glyph-name="uniFB6D" unicode="&#x6a4;" horiz-adv-x="544" arabic-form="medial" 
d="M272 485q93 0 155 -62.5t62 -157.5q0 -68 -44 -124q-17 -22 -46 -46l34 -2q55 -3 111 -3q10 0 10 -10v-69q0 -11 -10 -11q-79 0 -171 14q-52 7 -97 21q-49 -16 -102 -23q-87 -12 -174 -12q-10 1 -10 11v69q0 10 10 10q56 0 107 3l33 2q-22 18 -43 42q-43 55 -43 127
q0 94 63 157.5t155 63.5zM368 162q35 43 35 96q0 60 -37.5 98.5t-96.5 38.5q-56 0 -93 -37.5t-37 -99.5q0 -53 33 -95q34 -42 92 -61q69 19 104 60zM280 635l77 77l76 -77l-76 -75zM117 635l75 77l77 -77l-76 -75zM215 756l60 61l61 -61l-60 -60z" />
    <glyph glyph-name="uniFB7B" unicode="&#x686;" horiz-adv-x="651" arabic-form="final" 
d="M200 538q38 0 75 -16.5t73 -44t72.5 -57.5t87.5 -61.5t104 -51.5l-23 -85q-22 0 -60 -2v-52q0 -78 122 -78q10 0 10 -10v-69q0 -11 -10 -11q-89 0 -137 38.5t-48 115.5v58q-32 -6 -47 -10q-126 -29 -207.5 -93t-81.5 -145q0 -43 18 -78.5t60 -74.5l-78 -33
q-85 73 -85 178q0 100 73 177t205 118q64 21 152 32q-31 17 -61 39q-10 8 -45.5 37t-48 37t-38.5 24.5t-46 22t-41 5.5q-51 0 -120 -24v80q55 34 125 34zM406 -111l77 75l76 -75l-76 -77zM243 -111l75 75l77 -75l-76 -77zM342 -234l60 61l61 -61l-60 -60z" />
    <glyph glyph-name="uniFB7C" unicode="&#x686;" horiz-adv-x="609" arabic-form="initial" 
d="M189 475q38 0 73.5 -14.5t69 -38.5t67.5 -50.5t83 -56t102 -49.5l-23 -85q-65 -13 -118.5 -37t-91 -47.5t-81 -46t-111 -36.5t-158.5 -14q-11 0 -11 11v69q0 10 11 10q78 0 146 13.5t100.5 26t93 42t80.5 38.5q21 10 47 19q-41 21 -76 45q-11 8 -37 28t-36.5 27.5
t-31.5 21.5t-34.5 19t-32 10t-36.5 5q-51 0 -120 -24v80q55 34 125 34zM290 -153l77 75l76 -75l-76 -77zM226 -276l60 61l61 -61l-60 -60zM127 -153l75 75l77 -75l-76 -77z" />
    <glyph glyph-name="uniFB7D" unicode="&#x686;" horiz-adv-x="631" arabic-form="medial" 
d="M189 475q38 0 73.5 -14.5t69 -38.5t67.5 -50.5t83 -56t102 -49.5l-23 -85q-20 -3 -46 -11q0 -80 116 -80q10 0 10 -10v-69q0 -11 -10 -11q-93 0 -136 43q-39 41 -42 106q-44 -19 -73 -35q-8 -5 -44 -26.5t-49 -28t-49 -22t-64.5 -21t-74.5 -11t-98 -5.5q-11 0 -11 11v69
q0 10 11 10q78 0 146 13.5t100.5 26t93 42t80.5 38.5q21 10 47 19q-41 21 -76 45q-11 8 -37 28t-36.5 27.5t-31.5 21.5t-34.5 19t-32 10t-36.5 5q-51 0 -120 -24v80q55 34 125 34zM290 -153l77 75l76 -75l-76 -77zM127 -153l75 75l77 -75l-76 -77zM226 -276l60 61l61 -61
l-60 -60z" />
    <glyph glyph-name="uniFB89" unicode="&#x688;" horiz-adv-x="518" arabic-form="final" 
d="M15 34v85q100 -29 181 -29q82 0 151 21q-16 31 -26 63q-42 133 -74 311h90q31 -199 64 -299q17 -51 44.5 -73.5t72.5 -22.5q10 0 10 -10v-69q0 -11 -10 -11q-77 0 -129 52q-39 -24 -87 -38q-51 -14 -106 -14q-51 0 -85.5 6.5t-95.5 27.5zM157 768h55v-96l-2 -13
q71 77 124 77q42 0 70 -26t28 -65q0 -50 -48 -78.5t-131 -28.5h-126l-33 58h63v172zM206 596h45q114 0 114 49q0 15 -12 24.5t-32 9.5q-35 0 -96 -64z" />
    <glyph glyph-name="uniFB8B" unicode="&#x698;" horiz-adv-x="341" arabic-form="final" 
d="M120 440h85q16 -121 22 -203l3 -37l4 -25q5 -52 32.5 -68.5t73.5 -16.5q10 0 10 -10v-69q0 -11 -10 -11q-63 0 -96 35l-6 8v-17q0 -115 -68.5 -178t-184.5 -63v82q77 0 124.5 42t47.5 121q0 148 -37 410zM158 593l77 77l76 -77l-76 -75zM-5 593l75 77l77 -77l-76 -75z
M93 714l60 61l61 -61l-60 -60z" />
    <glyph glyph-name="uniFB8D" unicode="&#x691;" horiz-adv-x="341" arabic-form="final" 
d="M120 440h85q16 -121 22 -203l3 -37l4 -25q5 -52 32.5 -68.5t73.5 -16.5q10 0 10 -10v-69q0 -11 -10 -11q-63 0 -96 35l-6 8v-17q0 -115 -68.5 -178t-184.5 -63v82q77 0 124.5 42t47.5 121q0 148 -37 410zM48 725h55v-96l-3 -13q71 77 125 77q42 0 70 -26t28 -65
q0 -50 -48 -78.5t-131 -28.5h-126l-33 58h63v172zM96 553h46q114 0 114 49q0 15 -12 24.5t-32 9.5t-41 -14.5t-56 -49.5z" />
    <glyph glyph-name="uniFB8F" unicode="&#x6a9;" horiz-adv-x="987" arabic-form="final" 
d="M71 440h80q-25 -124 -25 -190q0 -84 43 -122t144 -38h239q10 0 10 -10v-69q0 -11 -10 -11h-258q-121 0 -187 59t-66 170q0 79 30 211zM732 795h128v-4l-370 -292l174 -76q204 -88 204 -223q0 -90 -71 -145t-192 -55h-283q-10 0 -10 11v69q0 10 10 10h291q73 0 121.5 30
t48.5 76q0 41 -36.5 75t-124.5 73l-240 106v68zM792 93l44 50q40 -31 72.5 -42t78.5 -11q10 0 10 -10v-69q0 -11 -10 -11q-57 0 -102 21t-93 72z" />
    <glyph glyph-name="uniFB90" unicode="&#x6a9;" horiz-adv-x="581" arabic-form="initial" 
d="M410 795h128v-4l-370 -292l174 -76q204 -88 204 -223q0 -90 -71 -145t-192 -55h-283q-10 0 -10 11v69q0 10 10 10h291q73 0 121.5 30t48.5 76q0 41 -36.5 75t-124.5 73l-240 106v68z" />
    <glyph glyph-name="uniFB91" unicode="&#x6a9;" horiz-adv-x="649" arabic-form="medial" 
d="M410 795h128v-4l-370 -292l174 -76q204 -88 204 -223q0 -90 -71 -145t-192 -55h-283q-10 0 -10 11v69q0 10 10 10h291q73 0 121.5 30t48.5 76q0 41 -36.5 75t-124.5 73l-240 106v68zM454 93l44 50q40 -31 72.5 -42t78.5 -11q10 0 10 -10v-69q0 -11 -10 -11q-57 0 -102 21
t-93 72z" />
    <glyph glyph-name="uniFB93" unicode="&#x6af;" horiz-adv-x="987" arabic-form="final" 
d="M71 440h80q-25 -124 -25 -190q0 -84 43 -122t144 -38h239q10 0 10 -10v-69q0 -11 -10 -11h-258q-121 0 -187 59t-66 170q0 79 30 211zM732 795h128v-4l-370 -292l174 -76q204 -88 204 -223q0 -90 -71 -145t-192 -55h-283q-10 0 -10 11v69q0 10 10 10h291q73 0 121.5 30
t48.5 76q0 41 -36.5 75t-124.5 73l-240 106v68zM792 93l44 50q40 -31 72.5 -42t78.5 -11q10 0 10 -10v-69q0 -11 -10 -11q-57 0 -102 21t-93 72zM568 795v-4l-261 -209l-37 44l208 169h90z" />
    <glyph glyph-name="uniFB94" unicode="&#x6af;" horiz-adv-x="716" arabic-form="initial" 
d="M545 795h128v-4l-370 -292l174 -76q204 -88 204 -223q0 -90 -71 -145t-192 -55h-283q-10 0 -10 11v69q0 10 10 10h291q73 0 121.5 30t48.5 76q0 41 -36.5 75t-124.5 73l-240 106v68zM350 795v-4l-261 -209l-37 44l208 169h90zM0 90h194q10 0 10 -10v-69q0 -11 -10 -11
h-194q-10 0 -10 11v69q0 10 10 10z" />
    <glyph glyph-name="uniFB95" unicode="&#x6af;" horiz-adv-x="784" arabic-form="medial" 
d="M545 795h128v-4l-370 -292l174 -76q204 -88 204 -223q0 -90 -71 -145t-192 -55h-283q-10 0 -10 11v69q0 10 10 10h291q73 0 121.5 30t48.5 76q0 41 -36.5 75t-124.5 73l-240 106v68zM589 93l44 50q40 -31 72.5 -42t78.5 -11q10 0 10 -10v-69q0 -11 -10 -11q-57 0 -102 21
t-93 72zM350 795v-4l-261 -209l-37 44l208 169h90zM0 90h194q10 0 10 -10v-69q0 -11 -10 -11h-194q-10 0 -10 11v69q0 10 10 10z" />
    <glyph glyph-name="uniFB9F" unicode="&#x6ba;" horiz-adv-x="677" arabic-form="final" 
d="M452 440h85q12 -78 25 -183q3 -26 7 -76l1 -6q5 -52 32.5 -68.5t73.5 -16.5q10 0 10 -10v-69q0 -11 -10 -11q-63 0 -96 35q-10 13 -11 14q-5 -46 -14 -75q-26 -89 -93.5 -139t-173.5 -50q-118 0 -183 70.5t-65 201.5q0 95 45 228h80q-45 -116 -45 -213q0 -197 176 -197
q101 0 148 54t47 170q0 78 -39 341z" />
    <glyph glyph-name="uniFBA7" unicode="&#x6c1;" horiz-adv-x="620" arabic-form="final" 
d="M297 430q67 0 110 -43.5t91 -150.5q37 -87 60 -113q27 -33 62 -33q10 0 10 -10v-69q0 -11 -10 -11q-64 0 -109 43t-84 144q-32 85 -59 119t-71 34t-77.5 -37.5t-75.5 -132.5l-37 -84l-72 34l37 84q54 123 105 174.5t120 51.5z" />
    <glyph glyph-name="uniFBA8" unicode="&#x6c1;" horiz-adv-x="274" arabic-form="initial" 
d="M88 -62h69l-50 -108h55l-18 -105h-110v103zM89 485h85q30 -210 30 -294q0 -90 -51.5 -140.5t-152.5 -50.5q-10 0 -10 11v69q0 10 10 10q65 0 93.5 25t28.5 79q0 67 -33 291z" />
    <glyph glyph-name="uniFBA9" unicode="&#x6c1;" horiz-adv-x="725" arabic-form="medial" 
d="M129 370h85v-347q0 -109 55 -158q51 -45 157 -50v65q0 101 48.5 155.5t137.5 54.5h113q10 0 10 -11v-69q0 -10 -10 -10h-113q-106 0 -106 -130v-63l-70 -82q-158 0 -232.5 73.5t-74.5 230.5v12q-5 -5 -17 -13q-40 -28 -112 -28q-10 0 -10 11v69q0 10 10 10
q52 0 90.5 18.5t38.5 63.5v198zM616 -62h69l-50 -108h55l-18 -105h-110v103z" />
    <glyph glyph-name="uniFBAB" unicode="&#x6be;" horiz-adv-x="617" arabic-form="final" 
d="M336 560h67q68 -61 109 -136t41 -143q0 -86 -61 -149q-14 -14 -22 -20q25 -10 51 -14q48 -8 96 -8q10 0 10 -11v-69q0 -10 -10 -10q-26 0 -56 5q-26 6 -40 11q38 -50 38 -96q0 -61 -45.5 -98t-121.5 -37q-120 0 -193 89q-29 36 -47 81q-52 -34 -88 -65l-49 63
q30 29 60 51q17 13 55 37q-4 31 -4 71q0 124 54 239.5t156 208.5zM215 85q25 12 91 38q83 30 122.5 67.5t39.5 87.5q0 89 -75 174q-20 22 -31 32q-27 -26 -51 -57q-46 -60 -73.5 -139t-27.5 -162q0 -29 1 -42q3 0 4 1zM331 38q-56 -19 -100 -40q13 -36 35 -62
q50 -62 128 -62q40 0 63.5 15.5t23.5 44.5q0 32 -20 66q-19 30 -57 68q-36 -17 -73 -30z" />
    <glyph glyph-name="uniFBAC" unicode="&#x6be;" horiz-adv-x="752" arabic-form="initial" 
d="M238 580l1 90q220 0 344 -101t124 -267q0 -93 -54 -236l-85 -79q-81 0 -163 17q-62 14 -121 34q-53 -19 -112 -26q-86 -12 -172 -12q-10 1 -10 11v69q0 10 10 10q56 0 104 3l34 3q-23 18 -41 41q-43 55 -43 127q0 94 62 157.5t153 63.5q94 0 154.5 -62.5t60.5 -157.5
q0 -68 -44 -124q-19 -24 -47 -48q4 0 5 -1q104 -15 172 -15q51 110 51 217q0 119 -97.5 202.5t-285.5 83.5zM364 162q34 41 34 96q0 60 -36.5 98.5t-95.5 38.5q-55 0 -91 -37.5t-36 -99.5q0 -53 33 -95q32 -42 89 -61q68 19 103 60z" />
    <glyph glyph-name="uniFBAD" unicode="&#x6be;" horiz-adv-x="553" arabic-form="medial" 
d="M272 560h67q68 -60 109 -133.5t41 -145.5t-37 -124q-15 -23 -42 -47q24 -8 47 -12q48 -8 96 -8q10 0 10 -11v-69q0 -10 -10 -10q-26 0 -56 5q-28 7 -40 11q38 -50 38 -96q0 -61 -45.5 -98t-121.5 -37q-86 0 -151 50t-95 137l-9 30q-46 -2 -73 -2q-10 0 -10 11v69
q0 10 10 10q43 0 63 1v8q0 119 51.5 242.5t157.5 218.5zM143 98l35 6q226 41 226 174q0 94 -74 175q-20 22 -31 32q-38 -33 -63 -71q-45 -67 -69 -146t-24 -150v-20zM196 17q-23 -4 -38 -7q0 -1 1 -2q23 -67 68.5 -100.5t103.5 -33.5q40 0 63.5 15.5t23.5 44.5q0 32 -20 66
q-17 27 -55 65q-63 -31 -147 -48z" />
    <glyph glyph-name="uniFBAF" unicode="&#x6d2;" horiz-adv-x="734" arabic-form="final" 
d="M267 90h467q10 0 10 -10v-69q0 -11 -10 -11h-494q-110 0 -110 -63q0 -62 135 -62h348l-38 -90h-286q-126 0 -185 36t-59 114q0 155 222 155z" />
    <glyph glyph-name="uniFBB1" unicode="&#x6d3;" horiz-adv-x="734" arabic-form="final" 
d="M267 90h467q10 0 10 -10v-69q0 -11 -10 -11h-494q-110 0 -110 -63q0 -62 135 -62h348l-38 -90h-286q-126 0 -185 36t-59 114q0 155 222 155zM361 303h100l-22 -73h-125q-52 0 -106 -17v70q39 13 54 16l6 2l-4 3q-18 22 -18 51q0 41 28.5 68.5t76.5 27.5q34 0 73 -19v-67
q-42 13 -68 13q-21 0 -34.5 -10t-13.5 -27q0 -19 16 -29q13 -7 37 -9z" />
    <glyph glyph-name="uniFBFD" unicode="&#x6cc;" horiz-adv-x="679" arabic-form="final" 
d="M485 34v85q124 -29 194 -29q10 0 10 -10v-69q0 -11 -10 -11h-9q-44 -99 -123 -153q-91 -62 -224 -62q-136 0 -209.5 69t-73.5 203q0 95 45 228h80q-45 -116 -45 -213q0 -102 54.5 -149.5t167.5 -47.5q151 0 227 98q12 15 23 35q-102 25 -107 26z" />
    <glyph glyph-name="uniFBFE" unicode="&#x6cc;" horiz-adv-x="333" arabic-form="initial" 
d="M167 485h85q30 -210 30 -294q0 -90 -51.5 -140.5t-152.5 -50.5h-78q-10 0 -10 11v69q0 10 10 10h78q64 0 92.5 25t28.5 79q0 74 -32 291zM-17 -153l75 75l76 -73l75 73l76 -75l-76 -76l-75 74l-75 -74z" />
    <glyph glyph-name="uniFBFF" unicode="&#x6cc;" horiz-adv-x="370" arabic-form="medial" 
d="M156 370h79q0 -96 -8 -165q-4 -33 -12 -62q34 -25 69 -38q40 -15 86 -15q10 0 10 -10v-69q0 -11 -10 -11q-98 0 -185 78q-25 -34 -63 -53q-49 -25 -122 -25q-10 0 -10 11v69q0 10 10 10q98 0 129 53q17 28 22 76t5 151zM18 -153l75 75l76 -73l75 73l76 -75l-76 -76
l-75 74l-75 -74z" />
    <glyph glyph-name="uniFC02" unicode="&#xfc02;" horiz-adv-x="542" arabic-form="isolated" 
d="M402 532h10l53 -54q-60 -52 -84.5 -94t-24.5 -93q0 -56 28 -99q20 -30 50 -58q35 -18 73 -42l-43 -79q-42 7 -78 26q-26 14 -53 36q-33 12 -60 18q-32 7 -65 7q-46 0 -67 -22t-21 -72q0 -84 33 -281h-85q-33 205 -33 292q0 80 46.5 126.5t120.5 46.5q28 0 62 -6l42 -9
l-14 28q-21 51 -21 99q0 133 131 230zM418 678h100l-22 -73h-125q-52 0 -106 -17v70q39 13 54 16l6 2l-4 3q-18 23 -18 51q0 41 28.5 68.5t76.5 27.5q34 0 73 -19v-67q-42 13 -68 13q-21 0 -34.5 -10t-13.5 -27q0 -19 16 -29q13 -7 37 -9z" />
    <glyph glyph-name="uniFC03" unicode="&#xfc03;" horiz-adv-x="881" arabic-form="isolated" 
d="M695 485h85q30 -210 30 -294q0 -91 -51 -141q-37 -36 -97 -46q-44 -102 -122 -157q-89 -62 -222 -62q-135 0 -206.5 68.5t-71.5 203.5q0 95 45 228h80q-45 -116 -45 -213q0 -102 52.5 -149.5t164.5 -47.5q95 0 163 43q49 28 78 82h-152l15 90h165q65 0 93.5 25t28.5 79
q0 67 -33 291zM757 609h100l-22 -73h-125q-52 0 -106 -17v70q39 13 54 16l6 2l-4 3q-18 22 -18 51q0 41 28.5 68.5t76.5 27.5q34 0 73 -19v-67q-42 13 -68 13q-21 0 -34.5 -10t-13.5 -27q0 -19 16 -29q13 -7 37 -9z" />
    <glyph glyph-name="uniFC04" unicode="&#xfc04;" horiz-adv-x="881" arabic-form="isolated" 
d="M695 485h85q30 -210 30 -294q0 -91 -51 -141q-37 -36 -97 -46q-44 -102 -122 -157q-89 -62 -222 -62q-135 0 -206.5 68.5t-71.5 203.5q0 95 45 228h80q-45 -116 -45 -213q0 -102 52.5 -149.5t164.5 -47.5q95 0 163 43q49 28 78 82h-152l15 90h165q65 0 93.5 25t28.5 79
q0 67 -33 291zM757 609h100l-22 -73h-125q-52 0 -106 -17v70q39 13 54 16l6 2l-4 3q-18 22 -18 51q0 41 28.5 68.5t76.5 27.5q34 0 73 -19v-67q-42 13 -68 13q-21 0 -34.5 -10t-13.5 -27q0 -19 16 -29q13 -7 37 -9zM257 -348l75 75l76 -73l75 73l76 -75l-76 -76l-75 74
l-75 -74z" />
    <glyph glyph-name="uniFC08" unicode="&#xfc08;" horiz-adv-x="542" arabic-form="isolated" 
d="M402 532h10l53 -54q-60 -52 -84.5 -94t-24.5 -93q0 -56 28 -99q20 -30 50 -58q35 -18 73 -42l-43 -79q-42 7 -78 26q-26 14 -53 36q-33 12 -60 18q-32 7 -65 7q-46 0 -67 -22t-21 -72q0 -84 33 -281h-85q-33 205 -33 292q0 80 46.5 126.5t120.5 46.5q28 0 62 -6l42 -9
l-14 28q-21 51 -21 99q0 133 131 230zM243 -152l75 75l77 -75l-75 -76z" />
    <glyph glyph-name="uniFC09" unicode="&#xfc09;" horiz-adv-x="871" arabic-form="isolated" 
d="M695 485h85q30 -210 30 -294q0 -91 -51 -141q-37 -36 -97 -46q-44 -102 -122 -157q-89 -62 -222 -62q-135 0 -206.5 68.5t-71.5 203.5q0 95 45 228h80q-45 -116 -45 -213q0 -102 52.5 -149.5t164.5 -47.5q95 0 163 43q49 28 78 82h-152l15 90h165q65 0 93.5 25t28.5 79
q0 67 -33 291zM653 -152l75 75l77 -75l-75 -76z" />
    <glyph glyph-name="uniFC0A" unicode="&#xfc0a;" horiz-adv-x="871" arabic-form="isolated" 
d="M695 485h85q30 -210 30 -294q0 -91 -51 -141q-37 -36 -97 -46q-44 -102 -122 -157q-89 -62 -222 -62q-135 0 -206.5 68.5t-71.5 203.5q0 95 45 228h80q-45 -116 -45 -213q0 -102 52.5 -149.5t164.5 -47.5q95 0 163 43q49 28 78 82h-152l15 90h165q65 0 93.5 25t28.5 79
q0 67 -33 291zM653 -152l75 75l77 -75l-75 -76zM257 -348l75 75l76 -73l75 73l76 -75l-76 -76l-75 74l-75 -74z" />
    <glyph glyph-name="uniFC0E" unicode="&#xfc0e;" horiz-adv-x="542" arabic-form="isolated" 
d="M402 532h10l53 -54q-60 -52 -84.5 -94t-24.5 -93q0 -56 28 -99q20 -30 50 -58q35 -18 73 -42l-43 -79q-42 7 -78 26q-26 14 -53 36q-33 12 -60 18q-32 7 -65 7q-46 0 -67 -22t-21 -72q0 -84 33 -281h-85q-33 205 -33 292q0 80 46.5 126.5t120.5 46.5q28 0 62 -6l42 -9
l-14 28q-21 51 -21 99q0 133 131 230zM258 672l75 76l76 -74l75 74l76 -76l-76 -75l-75 73l-75 -73z" />
    <glyph glyph-name="uniFC0F" unicode="&#xfc0f;" horiz-adv-x="909" arabic-form="isolated" 
d="M695 485h85q30 -210 30 -294q0 -91 -51 -141q-37 -36 -97 -46q-44 -102 -122 -157q-89 -62 -222 -62q-135 0 -206.5 68.5t-71.5 203.5q0 95 45 228h80q-45 -116 -45 -213q0 -102 52.5 -149.5t164.5 -47.5q95 0 163 43q49 28 78 82h-152l15 90h165q65 0 93.5 25t28.5 79
q0 67 -33 291zM583 637l75 76l76 -74l75 74l76 -76l-76 -75l-75 73l-75 -73z" />
    <glyph glyph-name="uniFC10" unicode="&#xfc10;" horiz-adv-x="909" arabic-form="isolated" 
d="M695 485h85q30 -210 30 -294q0 -91 -51 -141q-37 -36 -97 -46q-44 -102 -122 -157q-89 -62 -222 -62q-135 0 -206.5 68.5t-71.5 203.5q0 95 45 228h80q-45 -116 -45 -213q0 -102 52.5 -149.5t164.5 -47.5q95 0 163 43q49 28 78 82h-152l15 90h165q65 0 93.5 25t28.5 79
q0 67 -33 291zM583 637l75 76l76 -74l75 74l76 -76l-76 -75l-75 73l-75 -73zM257 -348l75 75l76 -73l75 73l76 -75l-76 -76l-75 74l-75 -74z" />
    <glyph glyph-name="uniFC12" unicode="&#xfc12;" horiz-adv-x="542" arabic-form="isolated" 
d="M402 532h10l53 -54q-60 -52 -84.5 -94t-24.5 -93q0 -56 28 -99q20 -30 50 -58q35 -18 73 -42l-43 -79q-42 7 -78 26q-26 14 -53 36q-33 12 -60 18q-32 7 -65 7q-46 0 -67 -22t-21 -72q0 -84 33 -281h-85q-33 205 -33 292q0 80 46.5 126.5t120.5 46.5q28 0 62 -6l42 -9
l-14 28q-21 51 -21 99q0 133 131 230zM415 685l77 77l76 -77l-76 -75zM252 685l75 77l77 -77l-76 -75zM350 806l60 61l61 -61l-60 -60z" />
    <glyph glyph-name="uniFC13" unicode="&#xfc13;" horiz-adv-x="918" arabic-form="isolated" 
d="M695 485h85q30 -210 30 -294q0 -91 -51 -141q-37 -36 -97 -46q-44 -102 -122 -157q-89 -62 -222 -62q-135 0 -206.5 68.5t-71.5 203.5q0 95 45 228h80q-45 -116 -45 -213q0 -102 52.5 -149.5t164.5 -47.5q95 0 163 43q49 28 78 82h-152l15 90h165q65 0 93.5 25t28.5 79
q0 67 -33 291zM740 634l77 77l76 -77l-76 -75zM577 634l75 77l77 -77l-76 -75zM675 755l60 61l61 -61l-60 -60z" />
    <glyph glyph-name="uniFC14" unicode="&#xfc14;" horiz-adv-x="918" arabic-form="isolated" 
d="M695 485h85q30 -210 30 -294q0 -91 -51 -141q-37 -36 -97 -46q-44 -102 -122 -157q-89 -62 -222 -62q-135 0 -206.5 68.5t-71.5 203.5q0 95 45 228h80q-45 -116 -45 -213q0 -102 52.5 -149.5t164.5 -47.5q95 0 163 43q49 28 78 82h-152l15 90h165q65 0 93.5 25t28.5 79
q0 67 -33 291zM740 634l77 77l76 -77l-76 -75zM577 634l75 77l77 -77l-76 -75zM675 755l60 61l61 -61l-60 -60zM257 -348l75 75l76 -73l75 73l76 -75l-76 -76l-75 74l-75 -74z" />
    <glyph glyph-name="uniFC31" unicode="&#xfc31;" horiz-adv-x="861" arabic-form="isolated" 
d="M611 590q84 0 137.5 -55t59.5 -147q8 -147 8 -182q0 -160 -152 -196q-92 -225 -351 -225q-131 0 -202 69t-71 203q0 95 45 228h80q-45 -116 -45 -213q0 -102 52.5 -149.5t159.5 -47.5q173 0 246 125h-157l15 90h147q79 0 113 27.5t37 92.5q-65 -30 -124 -30
q-92 0 -144 49.5t-52 142.5q0 95 56.5 156.5t141.5 61.5zM605 500q-46 0 -76.5 -34.5t-30.5 -89.5q0 -57 33 -86.5t91 -29.5q57 0 108 17q-1 17 -3 51.5t-4 50.5q-4 58 -35.5 89.5t-82.5 31.5zM536 727l75 76l77 -76l-75 -75z" />
    <glyph glyph-name="uniFC32" unicode="&#xfc32;" horiz-adv-x="861" arabic-form="isolated" 
d="M611 590q84 0 137.5 -55t59.5 -147q8 -147 8 -182q0 -160 -152 -196q-92 -225 -351 -225q-131 0 -202 69t-71 203q0 95 45 228h80q-45 -116 -45 -213q0 -102 52.5 -149.5t159.5 -47.5q173 0 246 125h-157l15 90h147q79 0 113 27.5t37 92.5q-65 -30 -124 -30
q-92 0 -144 49.5t-52 142.5q0 95 56.5 156.5t141.5 61.5zM605 500q-46 0 -76.5 -34.5t-30.5 -89.5q0 -57 33 -86.5t91 -29.5q57 0 108 17q-1 17 -3 51.5t-4 50.5q-4 58 -35.5 89.5t-82.5 31.5zM531 727l75 76l77 -76l-75 -75zM227 -348l75 75l76 -73l75 73l76 -75l-76 -76
l-75 74l-75 -74z" />
    <glyph glyph-name="uniFC35" unicode="&#xfc35;" horiz-adv-x="861" arabic-form="isolated" 
d="M611 590q84 0 137.5 -55t59.5 -147q8 -147 8 -182q0 -160 -152 -196q-92 -225 -351 -225q-131 0 -202 69t-71 203q0 95 45 228h80q-45 -116 -45 -213q0 -102 52.5 -149.5t159.5 -47.5q173 0 246 125h-157l15 90h147q79 0 113 27.5t37 92.5q-65 -30 -124 -30
q-92 0 -144 49.5t-52 142.5q0 95 56.5 156.5t141.5 61.5zM605 500q-46 0 -76.5 -34.5t-30.5 -89.5q0 -57 33 -86.5t91 -29.5q57 0 108 17q-1 17 -3 51.5t-4 50.5q-4 58 -35.5 89.5t-82.5 31.5zM463 728l75 76l76 -74l75 74l76 -76l-76 -75l-75 73l-75 -73z" />
    <glyph glyph-name="uniFC36" unicode="&#xfc36;" horiz-adv-x="861" arabic-form="isolated" 
d="M611 590q84 0 137.5 -55t59.5 -147q8 -147 8 -182q0 -160 -152 -196q-92 -225 -351 -225q-131 0 -202 69t-71 203q0 95 45 228h80q-45 -116 -45 -213q0 -102 52.5 -149.5t159.5 -47.5q173 0 246 125h-157l15 90h147q79 0 113 27.5t37 92.5q-65 -30 -124 -30
q-92 0 -144 49.5t-52 142.5q0 95 56.5 156.5t141.5 61.5zM605 500q-46 0 -76.5 -34.5t-30.5 -89.5q0 -57 33 -86.5t91 -29.5q57 0 108 17q-1 17 -3 51.5t-4 50.5q-4 58 -35.5 89.5t-82.5 31.5zM463 728l75 76l76 -74l75 74l76 -76l-76 -75l-75 73l-75 -73zM242 -348l75 75
l76 -73l75 73l76 -75l-76 -76l-75 74l-75 -74z" />
    <glyph glyph-name="uniFC3D" unicode="&#xfc3d;" horiz-adv-x="1412" arabic-form="isolated" 
d="M1240 795h127v-4l-368 -292l174 -76q204 -88 204 -223q0 -90 -71 -145t-192 -55h-219h-2q-108 0 -165.5 56.5t-57.5 163.5q0 33 5 85q4 38 15 88q-63 -5 -108 -16q-80 -19 -125 -53.5t-45 -72.5q0 -25 15.5 -42.5t64.5 -50.5l44 -29q103 -66 103 -152t-77.5 -139
t-213.5 -53q-146 0 -227 67.5t-81 204.5q0 95 45 228h80q-45 -116 -45 -213q0 -101 63 -149.5t198 -48.5q80 0 129 26.5t49 66.5q0 19 -18 39t-59 48l-46 31q-57 39 -81 74t-24 83q0 92 93.5 158t279.5 85l71 -56q-29 -136 -29 -198q0 -141 147 -141h2h227q73 0 121.5 30
t48.5 76q0 41 -36.5 75t-124.5 73l-240 106v68z" />
    <glyph glyph-name="uniFC3E" unicode="&#xfc3e;" horiz-adv-x="1412" arabic-form="isolated" 
d="M1240 795h127v-4l-368 -292l174 -76q204 -88 204 -223q0 -90 -71 -145t-192 -55h-219h-2q-108 0 -165.5 56.5t-57.5 163.5q0 33 5 85q4 38 15 88q-63 -5 -108 -16q-80 -19 -125 -53.5t-45 -72.5q0 -25 15.5 -42.5t64.5 -50.5l44 -29q103 -66 103 -152t-77.5 -139
t-213.5 -53q-146 0 -227 67.5t-81 204.5q0 95 45 228h80q-45 -116 -45 -213q0 -101 63 -149.5t198 -48.5q80 0 129 26.5t49 66.5q0 19 -18 39t-59 48l-46 31q-57 39 -81 74t-24 83q0 92 93.5 158t279.5 85l71 -56q-29 -136 -29 -198q0 -141 147 -141h2h227q73 0 121.5 30
t48.5 76q0 41 -36.5 75t-124.5 73l-240 106v68zM257 -348l75 75l76 -73l75 73l76 -75l-76 -76l-75 74l-75 -74z" />
    <glyph glyph-name="uniFC42" unicode="&#xfc42;" horiz-adv-x="517" arabic-form="isolated" 
d="M304 725h85v-567q5 -2 44 -19q41 -18 84 -47l-43 -79q-42 7 -78 26q-26 14 -53 36q-33 12 -60 18q-32 7 -65 7q-46 0 -67 -22t-21 -72q0 -84 33 -281h-85q-33 205 -33 292q0 80 46.5 126.5t120.5 46.5q28 0 62 -6q13 -2 37 -8v2q-7 42 -7 89v458z" />
    <glyph glyph-name="uniFC44" unicode="&#xfc44;" horiz-adv-x="865" arabic-form="isolated" 
d="M695 725h85v-534q0 -87 -51 -140q-26 -26 -64 -39q-43 -105 -124 -163q-86 -64 -228 -64q-131 0 -202 69t-71 203q0 95 45 228h80q-45 -116 -45 -213q0 -102 52.5 -149.5t159.5 -47.5q100 0 170 44q48 31 76 81h-2h-150l15 90h135q65 0 92 25t27 79v531zM235 -338l75 75
l76 -73l75 73l76 -75l-76 -76l-75 74l-75 -74z" />
    <glyph glyph-name="uniFC4E" unicode="&#xfc4e;" horiz-adv-x="542" arabic-form="isolated" 
d="M402 532h10l53 -54q-60 -52 -84.5 -94t-24.5 -93q0 -56 28 -99q20 -30 50 -58q35 -18 73 -42l-43 -79q-42 7 -78 26q-26 14 -53 36q-33 12 -60 18q-32 7 -65 7q-46 0 -67 -22t-21 -72q0 -84 33 -281h-85q-33 205 -33 292q0 80 46.5 126.5t120.5 46.5q28 0 62 -6l42 -9
l-14 28q-21 51 -21 99q0 133 131 230zM334 679l75 76l77 -76l-75 -75z" />
    <glyph glyph-name="uniFC4F" unicode="&#xfc4f;" horiz-adv-x="865" arabic-form="isolated" 
d="M695 485h85q30 -210 30 -294q0 -91 -51 -141q-37 -36 -97 -46q-44 -102 -122 -157q-89 -62 -222 -62q-135 0 -206.5 68.5t-71.5 203.5q0 95 45 228h80q-45 -116 -45 -213q0 -102 52.5 -149.5t164.5 -47.5q95 0 163 43q49 28 78 82h-152l15 90h165q65 0 93.5 25t28.5 79
q0 67 -33 291zM654 632l75 76l77 -76l-75 -75z" />
    <glyph glyph-name="uniFC50" unicode="&#xfc50;" horiz-adv-x="865" arabic-form="isolated" 
d="M695 485h85q30 -210 30 -294q0 -91 -51 -141q-37 -36 -97 -46q-44 -102 -122 -157q-89 -62 -222 -62q-135 0 -206.5 68.5t-71.5 203.5q0 95 45 228h80q-45 -116 -45 -213q0 -102 52.5 -149.5t164.5 -47.5q95 0 163 43q49 28 78 82h-152l15 90h165q65 0 93.5 25t28.5 79
q0 67 -33 291zM654 632l75 76l77 -76l-75 -75zM257 -348l75 75l76 -73l75 73l76 -75l-76 -76l-75 74l-75 -74z" />
    <glyph glyph-name="uniFC58" unicode="&#xfc58;" horiz-adv-x="542" arabic-form="isolated" 
d="M402 532h10l53 -54q-60 -52 -84.5 -94t-24.5 -93q0 -56 28 -99q20 -30 50 -58q35 -18 73 -42l-43 -79q-42 7 -78 26q-26 14 -53 36q-33 12 -60 18q-32 7 -65 7q-46 0 -67 -22t-21 -72q0 -84 33 -281h-85q-33 205 -33 292q0 80 46.5 126.5t120.5 46.5q28 0 62 -6l42 -9
l-14 28q-21 51 -21 99q0 133 131 230zM180 -149l75 75l76 -73l75 73l76 -75l-76 -76l-75 74l-75 -74z" />
    <glyph glyph-name="uniFC64" unicode="&#xfc64;" horiz-adv-x="603" arabic-form="final" 
d="M445 459l79 -44q-24 -107 -24 -188q0 -72 24.5 -104.5t78.5 -32.5q10 0 10 -10v-69q0 -11 -10 -11q-90 0 -136 49.5t-46 143.5q0 38 5 93q6 52 11 80q-108 -53 -215 -72q3 -34 10 -122q6 -67 6 -146q0 -115 -70 -178t-183 -63v82q74 0 123 42.5t49 120.5q0 122 -27 328
l10 12q90 8 157.5 29t147.5 60zM471 635h100l-22 -73h-125q-52 0 -106 -17v70q39 13 54 16l6 2l-4 3q-18 22 -18 51q0 41 28.5 68.5t76.5 27.5q34 0 73 -19v-67q-42 13 -68 13q-21 0 -34.5 -10t-13.5 -27q0 -19 16 -29q13 -7 37 -9z" />
    <glyph glyph-name="uniFC65" unicode="&#xfc65;" horiz-adv-x="603" arabic-form="final" 
d="M445 459l79 -44q-24 -107 -24 -188q0 -72 24.5 -104.5t78.5 -32.5q10 0 10 -10v-69q0 -11 -10 -11q-90 0 -136 49.5t-46 143.5q0 38 5 93q6 52 11 80q-108 -53 -215 -72q3 -34 10 -122q6 -67 6 -146q0 -115 -70 -178t-183 -63v82q74 0 123 42.5t49 120.5q0 122 -27 328
l10 12q90 8 157.5 29t147.5 60zM68 555l75 76l77 -76l-75 -75zM481 635h100l-22 -73h-125q-52 0 -106 -17v70q39 13 54 16l6 2l-4 3q-18 22 -18 51q0 41 28.5 68.5t76.5 27.5q34 0 73 -19v-67q-42 13 -68 13q-21 0 -34.5 -10t-13.5 -27q0 -19 16 -29q13 -7 37 -9z" />
    <glyph glyph-name="uniFC67" unicode="&#xfc67;" horiz-adv-x="938" arabic-form="final" 
d="M780 459l79 -44q-23 -103 -23 -188q0 -72 24 -104.5t78 -32.5q10 0 10 -10v-69q0 -11 -10 -11q-90 0 -136 49.5t-46 143.5q0 38 5 93q5 40 12 81q-52 -27 -106 -45q-55 -19 -109 -28l10 -93q4 -47 4 -102q0 -142 -71.5 -228t-212.5 -86q-118 0 -183 70.5t-65 201.5
q0 95 45 228h80q-45 -116 -45 -213q0 -197 176 -197q101 0 147 53.5t46 170.5q0 83 -24 259l10 12q90 8 157.5 29t147.5 60zM801 634h92l-22 -73h-125q-52 0 -106 -17v70q37 12 53 16l6 2l-3 3q-18 23 -18 51q0 41 28.5 68.5t76.5 27.5q34 0 73 -19v-67q-42 13 -68 13
q-21 0 -34.5 -10t-13.5 -27q0 -38 61 -38zM219 470l75 76l77 -76l-75 -75z" />
    <glyph glyph-name="uniFC68" unicode="&#xfc68;" horiz-adv-x="904" arabic-form="final" 
d="M704 485l71 -50q-29 -136 -29 -204t42 -104.5t116 -36.5q10 0 10 -10v-69q0 -11 -10 -11q-108 0 -171 57t-63 163q0 33 5 85q4 38 15 88q-63 -5 -108 -16q-80 -19 -125 -53.5t-45 -72.5q0 -25 15.5 -42.5t64.5 -50.5l44 -29q103 -66 103 -152t-77.5 -139t-213.5 -53
q-146 0 -227 67.5t-81 204.5q0 95 45 228h80q-45 -116 -45 -213q0 -101 63 -149.5t198 -48.5q80 0 129 26.5t49 66.5q0 19 -18 39t-59 48l-46 31q-57 39 -81 74t-24 83q0 92 93.5 158t279.5 85zM689 655h100l-22 -73h-125q-52 0 -106 -17v70q39 13 54 16l6 2l-4 3
q-18 22 -18 51q0 41 28.5 68.5t76.5 27.5q34 0 73 -19v-67q-42 13 -68 13q-21 0 -34.5 -10t-13.5 -27q0 -19 16 -29q13 -7 37 -9z" />
    <glyph glyph-name="uniFC69" unicode="&#xfc69;" horiz-adv-x="904" arabic-form="final" 
d="M704 485l71 -50q-29 -136 -29 -204t42 -104.5t116 -36.5q10 0 10 -10v-69q0 -11 -10 -11q-108 0 -171 57t-63 163q0 33 5 85q4 38 15 88q-63 -5 -108 -16q-80 -19 -125 -53.5t-45 -72.5q0 -25 15.5 -42.5t64.5 -50.5l44 -29q103 -66 103 -152t-77.5 -139t-213.5 -53
q-146 0 -227 67.5t-81 204.5q0 95 45 228h80q-45 -116 -45 -213q0 -101 63 -149.5t198 -48.5q80 0 129 26.5t49 66.5q0 19 -18 39t-59 48l-46 31q-57 39 -81 74t-24 83q0 92 93.5 158t279.5 85zM689 655h100l-22 -73h-125q-52 0 -106 -17v70q39 13 54 16l6 2l-4 3
q-18 22 -18 51q0 41 28.5 68.5t76.5 27.5q34 0 73 -19v-67q-42 13 -68 13q-21 0 -34.5 -10t-13.5 -27q0 -19 16 -29q13 -7 37 -9zM257 -348l75 75l76 -73l75 73l76 -75l-76 -76l-75 74l-75 -74z" />
    <glyph glyph-name="uniFC6A" unicode="&#xfc6a;" horiz-adv-x="603" arabic-form="final" 
d="M445 459l79 -44q-24 -107 -24 -188q0 -72 24.5 -104.5t78.5 -32.5q10 0 10 -10v-69q0 -11 -10 -11q-90 0 -136 49.5t-46 143.5q0 38 5 93q6 52 11 80q-108 -53 -215 -72q3 -34 10 -122q6 -67 6 -146q0 -115 -70 -178t-183 -63v82q74 0 123 42.5t49 120.5q0 122 -27 328
l10 12q90 8 157.5 29t147.5 60zM302 -152l75 75l77 -75l-75 -76z" />
    <glyph glyph-name="uniFC6B" unicode="&#xfc6b;" horiz-adv-x="603" arabic-form="final" 
d="M445 459l79 -44q-24 -107 -24 -188q0 -72 24.5 -104.5t78.5 -32.5q10 0 10 -10v-69q0 -11 -10 -11q-90 0 -136 49.5t-46 143.5q0 38 5 93q6 52 11 80q-108 -53 -215 -72q3 -34 10 -122q6 -67 6 -146q0 -115 -70 -178t-183 -63v82q74 0 123 42.5t49 120.5q0 122 -27 328
l10 12q90 8 157.5 29t147.5 60zM68 555l75 76l77 -76l-75 -75zM302 -152l75 75l77 -75l-75 -76z" />
    <glyph glyph-name="uniFC6D" unicode="&#xfc6d;" horiz-adv-x="938" arabic-form="final" 
d="M780 459l79 -44q-23 -103 -23 -188q0 -72 24 -104.5t78 -32.5q10 0 10 -10v-69q0 -11 -10 -11q-90 0 -136 49.5t-46 143.5q0 38 5 93q5 40 12 81q-52 -27 -106 -45q-55 -19 -109 -28l10 -93q4 -47 4 -102q0 -142 -71.5 -228t-212.5 -86q-118 0 -183 70.5t-65 201.5
q0 95 45 228h80q-45 -116 -45 -213q0 -197 176 -197q101 0 147 53.5t46 170.5q0 83 -24 259l10 12q90 8 157.5 29t147.5 60zM618 -153l75 75l77 -75l-75 -76zM219 470l75 76l77 -76l-75 -75z" />
    <glyph glyph-name="uniFC6E" unicode="&#xfc6e;" horiz-adv-x="904" arabic-form="final" 
d="M704 485l71 -50q-29 -136 -29 -204t42 -104.5t116 -36.5q10 0 10 -10v-69q0 -11 -10 -11q-108 0 -171 57t-63 163q0 33 5 85q4 38 15 88q-63 -5 -108 -16q-80 -19 -125 -53.5t-45 -72.5q0 -25 15.5 -42.5t64.5 -50.5l44 -29q103 -66 103 -152t-77.5 -139t-213.5 -53
q-146 0 -227 67.5t-81 204.5q0 95 45 228h80q-45 -116 -45 -213q0 -101 63 -149.5t198 -48.5q80 0 129 26.5t49 66.5q0 19 -18 39t-59 48l-46 31q-57 39 -81 74t-24 83q0 92 93.5 158t279.5 85zM688 -152l75 75l77 -75l-75 -76z" />
    <glyph glyph-name="uniFC6F" unicode="&#xfc6f;" horiz-adv-x="904" arabic-form="final" 
d="M704 485l71 -50q-29 -136 -29 -204t42 -104.5t116 -36.5q10 0 10 -10v-69q0 -11 -10 -11q-108 0 -171 57t-63 163q0 33 5 85q4 38 15 88q-63 -5 -108 -16q-80 -19 -125 -53.5t-45 -72.5q0 -25 15.5 -42.5t64.5 -50.5l44 -29q103 -66 103 -152t-77.5 -139t-213.5 -53
q-146 0 -227 67.5t-81 204.5q0 95 45 228h80q-45 -116 -45 -213q0 -101 63 -149.5t198 -48.5q80 0 129 26.5t49 66.5q0 19 -18 39t-59 48l-46 31q-57 39 -81 74t-24 83q0 92 93.5 158t279.5 85zM688 -152l75 75l77 -75l-75 -76zM257 -348l75 75l76 -73l75 73l76 -75l-76 -76
l-75 74l-75 -74z" />
    <glyph glyph-name="uniFC70" unicode="&#xfc70;" horiz-adv-x="603" arabic-form="final" 
d="M445 459l79 -44q-24 -107 -24 -188q0 -72 24.5 -104.5t78.5 -32.5q10 0 10 -10v-69q0 -11 -10 -11q-90 0 -136 49.5t-46 143.5q0 38 5 93q6 52 11 80q-108 -53 -215 -72q3 -34 10 -122q6 -67 6 -146q0 -115 -70 -178t-183 -63v82q74 0 123 42.5t49 120.5q0 122 -27 328
l10 12q90 8 157.5 29t147.5 60zM254 630l75 76l76 -74l75 74l76 -76l-76 -75l-75 73l-75 -73z" />
    <glyph glyph-name="uniFC71" unicode="&#xfc71;" horiz-adv-x="603" arabic-form="final" 
d="M445 459l79 -44q-24 -107 -24 -188q0 -72 24.5 -104.5t78.5 -32.5q10 0 10 -10v-69q0 -11 -10 -11q-90 0 -136 49.5t-46 143.5q0 38 5 93q6 52 11 80q-108 -53 -215 -72q3 -34 10 -122q6 -67 6 -146q0 -115 -70 -178t-183 -63v82q74 0 123 42.5t49 120.5q0 122 -27 328
l10 12q90 8 157.5 29t147.5 60zM68 555l75 76l77 -76l-75 -75zM307 630l75 76l76 -74l75 74l76 -76l-76 -75l-75 73l-75 -73z" />
    <glyph glyph-name="uniFC73" unicode="&#xfc73;" horiz-adv-x="938" arabic-form="final" 
d="M780 459l79 -44q-23 -103 -23 -188q0 -72 24 -104.5t78 -32.5q10 0 10 -10v-69q0 -11 -10 -11q-90 0 -136 49.5t-46 143.5q0 38 5 93q5 40 12 81q-52 -27 -106 -45q-55 -19 -109 -28l10 -93q4 -47 4 -102q0 -142 -71.5 -228t-212.5 -86q-118 0 -183 70.5t-65 201.5
q0 95 45 228h80q-45 -116 -45 -213q0 -197 176 -197q101 0 147 53.5t46 170.5q0 83 -24 259l10 12q90 8 157.5 29t147.5 60zM587 631l75 76l76 -74l75 74l76 -76l-76 -75l-75 73l-75 -73zM219 470l75 76l77 -76l-75 -75z" />
    <glyph glyph-name="uniFC74" unicode="&#xfc74;" horiz-adv-x="904" arabic-form="final" 
d="M704 485l71 -50q-29 -136 -29 -204t42 -104.5t116 -36.5q10 0 10 -10v-69q0 -11 -10 -11q-108 0 -171 57t-63 163q0 33 5 85q4 38 15 88q-63 -5 -108 -16q-80 -19 -125 -53.5t-45 -72.5q0 -25 15.5 -42.5t64.5 -50.5l44 -29q103 -66 103 -152t-77.5 -139t-213.5 -53
q-146 0 -227 67.5t-81 204.5q0 95 45 228h80q-45 -116 -45 -213q0 -101 63 -149.5t198 -48.5q80 0 129 26.5t49 66.5q0 19 -18 39t-59 48l-46 31q-57 39 -81 74t-24 83q0 92 93.5 158t279.5 85zM511 663l75 76l76 -74l75 74l76 -76l-76 -75l-75 73l-75 -73z" />
    <glyph glyph-name="uniFC75" unicode="&#xfc75;" horiz-adv-x="904" arabic-form="final" 
d="M704 485l71 -50q-29 -136 -29 -204t42 -104.5t116 -36.5q10 0 10 -10v-69q0 -11 -10 -11q-108 0 -171 57t-63 163q0 33 5 85q4 38 15 88q-63 -5 -108 -16q-80 -19 -125 -53.5t-45 -72.5q0 -25 15.5 -42.5t64.5 -50.5l44 -29q103 -66 103 -152t-77.5 -139t-213.5 -53
q-146 0 -227 67.5t-81 204.5q0 95 45 228h80q-45 -116 -45 -213q0 -101 63 -149.5t198 -48.5q80 0 129 26.5t49 66.5q0 19 -18 39t-59 48l-46 31q-57 39 -81 74t-24 83q0 92 93.5 158t279.5 85zM511 663l75 76l76 -74l75 74l76 -76l-76 -75l-75 73l-75 -73zM258 -348l75 75
l76 -73l75 73l76 -75l-76 -76l-75 74l-75 -74z" />
    <glyph glyph-name="uniFC76" unicode="&#xfc76;" horiz-adv-x="603" arabic-form="final" 
d="M445 459l79 -44q-24 -107 -24 -188q0 -72 24.5 -104.5t78.5 -32.5q10 0 10 -10v-69q0 -11 -10 -11q-90 0 -136 49.5t-46 143.5q0 38 5 93q6 52 11 80q-108 -53 -215 -72q3 -34 10 -122q6 -67 6 -146q0 -115 -70 -178t-183 -63v82q74 0 123 42.5t49 120.5q0 122 -27 328
l10 12q90 8 157.5 29t147.5 60zM408 635l77 77l76 -77l-76 -75zM245 635l75 77l77 -77l-76 -75zM343 756l60 61l61 -61l-60 -60z" />
    <glyph glyph-name="uniFC77" unicode="&#xfc77;" horiz-adv-x="603" arabic-form="final" 
d="M445 459l79 -44q-24 -107 -24 -188q0 -72 24.5 -104.5t78.5 -32.5q10 0 10 -10v-69q0 -11 -10 -11q-90 0 -136 49.5t-46 143.5q0 38 5 93q6 52 11 80q-108 -53 -215 -72q3 -34 10 -122q6 -67 6 -146q0 -115 -70 -178t-183 -63v82q74 0 123 42.5t49 120.5q0 122 -27 328
l10 12q90 8 157.5 29t147.5 60zM68 555l75 76l77 -76l-75 -75zM454 635l77 77l76 -77l-76 -75zM291 635l75 77l77 -77l-76 -75zM389 756l60 61l61 -61l-60 -60z" />
    <glyph glyph-name="uniFC79" unicode="&#xfc79;" horiz-adv-x="938" arabic-form="final" 
d="M780 459l79 -44q-23 -103 -23 -188q0 -72 24 -104.5t78 -32.5q10 0 10 -10v-69q0 -11 -10 -11q-90 0 -136 49.5t-46 143.5q0 38 5 93q5 40 12 81q-52 -27 -106 -45q-55 -19 -109 -28l10 -93q4 -47 4 -102q0 -142 -71.5 -228t-212.5 -86q-118 0 -183 70.5t-65 201.5
q0 95 45 228h80q-45 -116 -45 -213q0 -197 176 -197q101 0 147 53.5t46 170.5q0 83 -24 259l10 12q90 8 157.5 29t147.5 60zM740 621l77 77l76 -77l-76 -75zM577 621l75 77l77 -77l-76 -75zM219 470l75 76l77 -76l-75 -75zM675 742l60 61l61 -61l-60 -60z" />
    <glyph glyph-name="uniFC7A" unicode="&#xfc7a;" horiz-adv-x="904" arabic-form="final" 
d="M704 485l71 -50q-29 -136 -29 -204t42 -104.5t116 -36.5q10 0 10 -10v-69q0 -11 -10 -11q-108 0 -171 57t-63 163q0 33 5 85q4 38 15 88q-63 -5 -108 -16q-80 -19 -125 -53.5t-45 -72.5q0 -25 15.5 -42.5t64.5 -50.5l44 -29q103 -66 103 -152t-77.5 -139t-213.5 -53
q-146 0 -227 67.5t-81 204.5q0 95 45 228h80q-45 -116 -45 -213q0 -101 63 -149.5t198 -48.5q80 0 129 26.5t49 66.5q0 19 -18 39t-59 48l-46 31q-57 39 -81 74t-24 83q0 92 93.5 158t279.5 85zM661 625l77 77l76 -77l-76 -75zM498 625l75 77l77 -77l-76 -75zM596 746l60 61
l61 -61l-60 -60z" />
    <glyph glyph-name="uniFC7B" unicode="&#xfc7b;" horiz-adv-x="904" arabic-form="final" 
d="M704 485l71 -50q-29 -136 -29 -204t42 -104.5t116 -36.5q10 0 10 -10v-69q0 -11 -10 -11q-108 0 -171 57t-63 163q0 33 5 85q4 38 15 88q-63 -5 -108 -16q-80 -19 -125 -53.5t-45 -72.5q0 -25 15.5 -42.5t64.5 -50.5l44 -29q103 -66 103 -152t-77.5 -139t-213.5 -53
q-146 0 -227 67.5t-81 204.5q0 95 45 228h80q-45 -116 -45 -213q0 -101 63 -149.5t198 -48.5q80 0 129 26.5t49 66.5q0 19 -18 39t-59 48l-46 31q-57 39 -81 74t-24 83q0 92 93.5 158t279.5 85zM661 625l77 77l76 -77l-76 -75zM498 625l75 77l77 -77l-76 -75zM596 746l60 61
l61 -61l-60 -60zM257 -348l75 75l76 -73l75 73l76 -75l-76 -76l-75 74l-75 -74z" />
    <glyph glyph-name="uniFC83" unicode="&#xfc83;" horiz-adv-x="1488" arabic-form="final" 
d="M1240 795h127v-4l-368 -292l174 -76q204 -88 204 -223q0 -90 -71 -145t-192 -55h-219h-2q-108 0 -165.5 56.5t-57.5 163.5q0 33 5 85q4 38 15 88q-63 -5 -108 -16q-80 -19 -125 -53.5t-45 -72.5q0 -25 15.5 -42.5t64.5 -50.5l44 -29q103 -66 103 -152t-77.5 -139
t-213.5 -53q-146 0 -227 67.5t-81 204.5q0 95 45 228h80q-45 -116 -45 -213q0 -101 63 -149.5t198 -48.5q80 0 129 26.5t49 66.5q0 19 -18 39t-59 48l-46 31q-57 39 -81 74t-24 83q0 92 93.5 158t279.5 85l71 -56q-29 -136 -29 -198q0 -141 147 -141h2h227q73 0 121.5 30
t48.5 76q0 41 -36.5 75t-124.5 73l-240 106v68zM1293 93l44 50q40 -31 72.5 -42t78.5 -11q10 0 10 -10v-69q0 -11 -10 -11q-57 0 -102 21t-93 72z" />
    <glyph glyph-name="uniFC84" unicode="&#xfc84;" horiz-adv-x="1488" arabic-form="final" 
d="M1240 795h127v-4l-368 -292l174 -76q204 -88 204 -223q0 -90 -71 -145t-192 -55h-219h-2q-108 0 -165.5 56.5t-57.5 163.5q0 33 5 85q4 38 15 88q-63 -5 -108 -16q-80 -19 -125 -53.5t-45 -72.5q0 -25 15.5 -42.5t64.5 -50.5l44 -29q103 -66 103 -152t-77.5 -139
t-213.5 -53q-146 0 -227 67.5t-81 204.5q0 95 45 228h80q-45 -116 -45 -213q0 -101 63 -149.5t198 -48.5q80 0 129 26.5t49 66.5q0 19 -18 39t-59 48l-46 31q-57 39 -81 74t-24 83q0 92 93.5 158t279.5 85l71 -56q-29 -136 -29 -198q0 -141 147 -141h2h227q73 0 121.5 30
t48.5 76q0 41 -36.5 75t-124.5 73l-240 106v68zM1293 93l44 50q40 -31 72.5 -42t78.5 -11q10 0 10 -10v-69q0 -11 -10 -11q-57 0 -102 21t-93 72zM257 -348l75 75l76 -73l75 73l76 -75l-76 -76l-75 74l-75 -74z" />
    <glyph glyph-name="uniFC87" unicode="&#xfc87;" horiz-adv-x="894" arabic-form="final" 
d="M689 725h85v-531q0 -54 27.5 -79t91.5 -25q10 0 10 -10v-69q0 -11 -10 -11q-103 0 -154 51q-8 8 -11 13l-10 -10q-14 -14 -37 -28l-14 -8q-42 -107 -126 -169q-86 -64 -228 -64q-131 0 -202 69t-71 203q0 95 45 228h80q-45 -116 -45 -213q0 -102 52.5 -149.5t159.5 -47.5
q100 0 170 44q48 31 76 81h-2h-150l15 90h135q41 0 75 14q28 11 45 26q-7 27 -7 61v534zM236 -338l75 75l76 -73l75 73l76 -75l-76 -76l-75 74l-75 -74z" />
    <glyph glyph-name="uniFC8A" unicode="&#xfc8a;" horiz-adv-x="603" arabic-form="final" 
d="M445 459l79 -44q-24 -107 -24 -188q0 -72 24.5 -104.5t78.5 -32.5q10 0 10 -10v-69q0 -11 -10 -11q-90 0 -136 49.5t-46 143.5q0 38 5 93q6 52 11 80q-108 -53 -215 -72q3 -34 10 -122q6 -67 6 -146q0 -115 -70 -178t-183 -63v82q74 0 123 42.5t49 120.5q0 122 -27 328
l10 12q90 8 157.5 29t147.5 60zM372 634l75 76l77 -76l-75 -75z" />
    <glyph glyph-name="uniFC8B" unicode="&#xfc8b;" horiz-adv-x="603" arabic-form="final" 
d="M445 459l79 -44q-24 -107 -24 -188q0 -72 24.5 -104.5t78.5 -32.5q10 0 10 -10v-69q0 -11 -10 -11q-90 0 -136 49.5t-46 143.5q0 38 5 93q6 52 11 80q-108 -53 -215 -72q3 -34 10 -122q6 -67 6 -146q0 -115 -70 -178t-183 -63v82q74 0 123 42.5t49 120.5q0 122 -27 328
l10 12q90 8 157.5 29t147.5 60zM68 555l75 76l77 -76l-75 -75zM372 634l75 76l77 -76l-75 -75z" />
    <glyph glyph-name="uniFC8D" unicode="&#xfc8d;" horiz-adv-x="938" arabic-form="final" 
d="M780 459l79 -44q-23 -103 -23 -188q0 -72 24 -104.5t78 -32.5q10 0 10 -10v-69q0 -11 -10 -11q-90 0 -136 49.5t-46 143.5q0 38 5 93q5 40 12 81q-52 -27 -106 -45q-55 -19 -109 -28l10 -93q4 -47 4 -102q0 -142 -71.5 -228t-212.5 -86q-118 0 -183 70.5t-65 201.5
q0 95 45 228h80q-45 -116 -45 -213q0 -197 176 -197q101 0 147 53.5t46 170.5q0 83 -24 259l10 12q90 8 157.5 29t147.5 60zM705 646l75 76l77 -76l-75 -75zM219 470l75 76l77 -76l-75 -75z" />
    <glyph glyph-name="uniFC8E" unicode="&#xfc8e;" horiz-adv-x="904" arabic-form="final" 
d="M704 485l71 -50q-29 -136 -29 -204t42 -104.5t116 -36.5q10 0 10 -10v-69q0 -11 -10 -11q-108 0 -171 57t-63 163q0 33 5 85q4 38 15 88q-63 -5 -108 -16q-80 -19 -125 -53.5t-45 -72.5q0 -25 15.5 -42.5t64.5 -50.5l44 -29q103 -66 103 -152t-77.5 -139t-213.5 -53
q-146 0 -227 67.5t-81 204.5q0 95 45 228h80q-45 -116 -45 -213q0 -101 63 -149.5t198 -48.5q80 0 129 26.5t49 66.5q0 19 -18 39t-59 48l-46 31q-57 39 -81 74t-24 83q0 92 93.5 158t279.5 85zM626 671l75 76l77 -76l-75 -75z" />
    <glyph glyph-name="uniFC8F" unicode="&#xfc8f;" horiz-adv-x="904" arabic-form="final" 
d="M704 485l71 -50q-29 -136 -29 -204t42 -104.5t116 -36.5q10 0 10 -10v-69q0 -11 -10 -11q-108 0 -171 57t-63 163q0 33 5 85q4 38 15 88q-63 -5 -108 -16q-80 -19 -125 -53.5t-45 -72.5q0 -25 15.5 -42.5t64.5 -50.5l44 -29q103 -66 103 -152t-77.5 -139t-213.5 -53
q-146 0 -227 67.5t-81 204.5q0 95 45 228h80q-45 -116 -45 -213q0 -101 63 -149.5t198 -48.5q80 0 129 26.5t49 66.5q0 19 -18 39t-59 48l-46 31q-57 39 -81 74t-24 83q0 92 93.5 158t279.5 85zM626 671l75 76l77 -76l-75 -75zM257 -348l75 75l76 -73l75 73l76 -75l-76 -76
l-75 74l-75 -74z" />
    <glyph glyph-name="uniFC91" unicode="&#xfc91;" horiz-adv-x="603" arabic-form="final" 
d="M445 459l79 -44q-24 -107 -24 -188q0 -72 24.5 -104.5t78.5 -32.5q10 0 10 -10v-69q0 -11 -10 -11q-90 0 -136 49.5t-46 143.5q0 38 5 93q6 52 11 80q-108 -53 -215 -72q3 -34 10 -122q6 -67 6 -146q0 -115 -70 -178t-183 -63v82q74 0 123 42.5t49 120.5q0 122 -27 328
l10 12q90 8 157.5 29t147.5 60zM244 -149l75 75l76 -73l75 73l76 -75l-76 -76l-75 74l-75 -74z" />
    <glyph glyph-name="uniFC92" unicode="&#xfc92;" horiz-adv-x="603" arabic-form="final" 
d="M445 459l79 -44q-24 -107 -24 -188q0 -72 24.5 -104.5t78.5 -32.5q10 0 10 -10v-69q0 -11 -10 -11q-90 0 -136 49.5t-46 143.5q0 38 5 93q6 52 11 80q-108 -53 -215 -72q3 -34 10 -122q6 -67 6 -146q0 -115 -70 -178t-183 -63v82q74 0 123 42.5t49 120.5q0 122 -27 328
l10 12q90 8 157.5 29t147.5 60zM68 555l75 76l77 -76l-75 -75zM244 -149l75 75l76 -73l75 73l76 -75l-76 -76l-75 74l-75 -74z" />
    <glyph glyph-name="uniFC94" unicode="&#xfc94;" horiz-adv-x="938" arabic-form="final" 
d="M780 459l79 -44q-23 -103 -23 -188q0 -72 24 -104.5t78 -32.5q10 0 10 -10v-69q0 -11 -10 -11q-90 0 -136 49.5t-46 143.5q0 38 5 93q5 40 12 81q-52 -27 -106 -45q-55 -19 -109 -28l10 -93q4 -47 4 -102q0 -142 -71.5 -228t-212.5 -86q-118 0 -183 70.5t-65 201.5
q0 95 45 228h80q-45 -116 -45 -213q0 -197 176 -197q101 0 147 53.5t46 170.5q0 83 -24 259l10 12q90 8 157.5 29t147.5 60zM581 -149l75 75l76 -73l75 73l76 -75l-76 -76l-75 74l-75 -74zM219 470l75 76l77 -76l-75 -75z" />
    <glyph glyph-name="uniFCCC" unicode="&#xfccc;" horiz-adv-x="293" arabic-form="initial" 
d="M0 90q37 0 68 -4q23 -2 44 -6l-2 13q-7 42 -7 89v543h85v-662l36 -16q41 -18 84 -47l-41 -77q-43 11 -77 27q-28 13 -50 31q-29 9 -70 14q-48 5 -70 5q-10 0 -10 10v69q0 11 10 11z" />
    <glyph glyph-name="uniFCFB" unicode="&#xfcfb;" horiz-adv-x="1464" arabic-form="isolated" 
d="M1294 485h85q30 -206 30 -296q0 -86 -53.5 -137.5t-140.5 -51.5q-46 0 -95 17q-33 12 -81 40q-22 -22 -46 -34q-48 -23 -106 -23q-101 0 -159 57t-58 163q0 33 5 85q4 38 15 88q-63 -5 -108 -16q-80 -19 -125 -53.5t-45 -72.5q0 -25 15.5 -42.5t64.5 -50.5l44 -29
q103 -66 103 -152t-77.5 -139t-213.5 -53q-146 0 -227 67.5t-81 204.5q0 95 45 228h80q-45 -116 -45 -213q0 -101 63 -149.5t198 -48.5q80 0 129 26.5t49 66.5q0 19 -18 39t-59 48l-46 31q-57 39 -81 74t-24 83q0 92 93.5 158t279.5 85l71 -50q-29 -136 -29 -204
q0 -69 36 -105t103 -36q49 0 74.5 13t40.5 41q26 56 26 226h79q0 -106 -10 -170q-8 -48 -19 -79q33 -14 55 -21q34 -10 74 -10q121 0 121 102q0 84 -32 293z" />
    <glyph glyph-name="uniFCFC" unicode="&#xfcfc;" horiz-adv-x="1464" arabic-form="isolated" 
d="M1294 485h85q30 -206 30 -296q0 -86 -53.5 -137.5t-140.5 -51.5q-46 0 -95 17q-33 12 -81 40q-22 -22 -46 -34q-48 -23 -106 -23q-101 0 -159 57t-58 163q0 33 5 85q4 38 15 88q-63 -5 -108 -16q-80 -19 -125 -53.5t-45 -72.5q0 -25 15.5 -42.5t64.5 -50.5l44 -29
q103 -66 103 -152t-77.5 -139t-213.5 -53q-146 0 -227 67.5t-81 204.5q0 95 45 228h80q-45 -116 -45 -213q0 -101 63 -149.5t198 -48.5q80 0 129 26.5t49 66.5q0 19 -18 39t-59 48l-46 31q-57 39 -81 74t-24 83q0 92 93.5 158t279.5 85l71 -50q-29 -136 -29 -204
q0 -69 36 -105t103 -36q49 0 74.5 13t40.5 41q26 56 26 226h79q0 -106 -10 -170q-8 -48 -19 -79q33 -14 55 -21q34 -10 74 -10q121 0 121 102q0 84 -32 293zM257 -348l75 75l76 -73l75 73l76 -75l-76 -76l-75 74l-75 -74z" />
    <glyph glyph-name="uniFCFD" unicode="&#xfcfd;" horiz-adv-x="1464" arabic-form="isolated" 
d="M1294 485h85q30 -206 30 -296q0 -86 -53.5 -137.5t-140.5 -51.5q-46 0 -95 17q-33 12 -81 40q-22 -22 -46 -34q-48 -23 -106 -23q-101 0 -159 57t-58 163q0 33 5 85q4 38 15 88q-63 -5 -108 -16q-80 -19 -125 -53.5t-45 -72.5q0 -25 15.5 -42.5t64.5 -50.5l44 -29
q103 -66 103 -152t-77.5 -139t-213.5 -53q-146 0 -227 67.5t-81 204.5q0 95 45 228h80q-45 -116 -45 -213q0 -101 63 -149.5t198 -48.5q80 0 129 26.5t49 66.5q0 19 -18 39t-59 48l-46 31q-57 39 -81 74t-24 83q0 92 93.5 158t279.5 85l71 -50q-29 -136 -29 -204
q0 -69 36 -105t103 -36q49 0 74.5 13t40.5 41q26 56 26 226h79q0 -106 -10 -170q-8 -48 -19 -79q33 -14 55 -21q34 -10 74 -10q121 0 121 102q0 84 -32 293zM1078 548l77 77l76 -77l-76 -75zM915 548l75 77l77 -77l-76 -75zM1013 669l60 61l61 -61l-60 -60z" />
    <glyph glyph-name="uniFCFE" unicode="&#xfcfe;" horiz-adv-x="1464" arabic-form="isolated" 
d="M1294 485h85q30 -206 30 -296q0 -86 -53.5 -137.5t-140.5 -51.5q-46 0 -95 17q-33 12 -81 40q-22 -22 -46 -34q-48 -23 -106 -23q-101 0 -159 57t-58 163q0 33 5 85q4 38 15 88q-63 -5 -108 -16q-80 -19 -125 -53.5t-45 -72.5q0 -25 15.5 -42.5t64.5 -50.5l44 -29
q103 -66 103 -152t-77.5 -139t-213.5 -53q-146 0 -227 67.5t-81 204.5q0 95 45 228h80q-45 -116 -45 -213q0 -101 63 -149.5t198 -48.5q80 0 129 26.5t49 66.5q0 19 -18 39t-59 48l-46 31q-57 39 -81 74t-24 83q0 92 93.5 158t279.5 85l71 -50q-29 -136 -29 -204
q0 -69 36 -105t103 -36q49 0 74.5 13t40.5 41q26 56 26 226h79q0 -106 -10 -170q-8 -48 -19 -79q33 -14 55 -21q34 -10 74 -10q121 0 121 102q0 84 -32 293zM257 -348l75 75l76 -73l75 73l76 -75l-76 -76l-75 74l-75 -74zM1070 548l77 77l76 -77l-76 -75zM907 548l75 77
l77 -77l-76 -75zM1005 669l60 61l61 -61l-60 -60z" />
    <glyph glyph-name="uniFD05" unicode="&#xfd05;" horiz-adv-x="1496" arabic-form="isolated" 
d="M1240 518q91 0 151 -60.5t60 -152.5q0 -139 -109.5 -222t-291.5 -83h-152q-110 0 -169 55.5t-59 164.5q0 33 5 85q4 38 15 88q-63 -5 -108 -16q-80 -19 -125 -53.5t-45 -72.5q0 -25 15.5 -42.5t64.5 -50.5l44 -29q103 -66 103 -152t-77.5 -139t-213.5 -53
q-146 0 -227 67.5t-81 204.5q0 95 45 228h80q-45 -116 -45 -213q0 -101 63 -149.5t198 -48.5q80 0 129 26.5t49 66.5q0 19 -18 39t-59 48l-46 31q-57 39 -81 74t-24 83q0 92 93.5 158t279.5 85l71 -50q-29 -132 -29 -204q0 -69 27 -102q89 109 161 189q107 118 172.5 159
t133.5 41zM888 90h150q148 0 237.5 54.5t89.5 146.5q0 58 -39.5 97.5t-97.5 39.5q-56 0 -112.5 -41.5t-150.5 -150.5q-44 -50 -120 -143q19 -3 43 -3z" />
    <glyph glyph-name="uniFD06" unicode="&#xfd06;" horiz-adv-x="1496" arabic-form="isolated" 
d="M1240 518q91 0 151 -60.5t60 -152.5q0 -139 -109.5 -222t-291.5 -83h-152q-110 0 -169 55.5t-59 164.5q0 33 5 85q4 38 15 88q-63 -5 -108 -16q-80 -19 -125 -53.5t-45 -72.5q0 -25 15.5 -42.5t64.5 -50.5l44 -29q103 -66 103 -152t-77.5 -139t-213.5 -53
q-146 0 -227 67.5t-81 204.5q0 95 45 228h80q-45 -116 -45 -213q0 -101 63 -149.5t198 -48.5q80 0 129 26.5t49 66.5q0 19 -18 39t-59 48l-46 31q-57 39 -81 74t-24 83q0 92 93.5 158t279.5 85l71 -50q-29 -132 -29 -204q0 -69 27 -102q89 109 161 189q107 118 172.5 159
t133.5 41zM888 90h150q148 0 237.5 54.5t89.5 146.5q0 58 -39.5 97.5t-97.5 39.5q-56 0 -112.5 -41.5t-150.5 -150.5q-44 -50 -120 -143q19 -3 43 -3zM257 -348l75 75l76 -73l75 73l76 -75l-76 -76l-75 74l-75 -74z" />
    <glyph glyph-name="uniFD07" unicode="&#xfd07;" horiz-adv-x="1496" arabic-form="isolated" 
d="M1240 518q91 0 151 -60.5t60 -152.5q0 -139 -109.5 -222t-291.5 -83h-152q-110 0 -169 55.5t-59 164.5q0 33 5 85q4 38 15 88q-63 -5 -108 -16q-80 -19 -125 -53.5t-45 -72.5q0 -25 15.5 -42.5t64.5 -50.5l44 -29q103 -66 103 -152t-77.5 -139t-213.5 -53
q-146 0 -227 67.5t-81 204.5q0 95 45 228h80q-45 -116 -45 -213q0 -101 63 -149.5t198 -48.5q80 0 129 26.5t49 66.5q0 19 -18 39t-59 48l-46 31q-57 39 -81 74t-24 83q0 92 93.5 158t279.5 85l71 -50q-29 -132 -29 -204q0 -69 27 -102q89 109 161 189q107 118 172.5 159
t133.5 41zM888 90h150q148 0 237.5 54.5t89.5 146.5q0 58 -39.5 97.5t-97.5 39.5q-56 0 -112.5 -41.5t-150.5 -150.5q-44 -50 -120 -143q19 -3 43 -3zM935 637l75 76l77 -76l-75 -75z" />
    <glyph glyph-name="uniFD08" unicode="&#xfd08;" horiz-adv-x="1496" arabic-form="isolated" 
d="M1240 518q91 0 151 -60.5t60 -152.5q0 -139 -109.5 -222t-291.5 -83h-152q-110 0 -169 55.5t-59 164.5q0 33 5 85q4 38 15 88q-63 -5 -108 -16q-80 -19 -125 -53.5t-45 -72.5q0 -25 15.5 -42.5t64.5 -50.5l44 -29q103 -66 103 -152t-77.5 -139t-213.5 -53
q-146 0 -227 67.5t-81 204.5q0 95 45 228h80q-45 -116 -45 -213q0 -101 63 -149.5t198 -48.5q80 0 129 26.5t49 66.5q0 19 -18 39t-59 48l-46 31q-57 39 -81 74t-24 83q0 92 93.5 158t279.5 85l71 -50q-29 -132 -29 -204q0 -69 27 -102q89 109 161 189q107 118 172.5 159
t133.5 41zM888 90h150q148 0 237.5 54.5t89.5 146.5q0 58 -39.5 97.5t-97.5 39.5q-56 0 -112.5 -41.5t-150.5 -150.5q-44 -50 -120 -143q19 -3 43 -3zM257 -348l75 75l76 -73l75 73l76 -75l-76 -76l-75 74l-75 -74zM935 637l75 76l77 -76l-75 -75z" />
    <glyph glyph-name="uniFD0D" unicode="&#xfd0d;" horiz-adv-x="1218" arabic-form="isolated" 
d="M461 495h78q-39 -169 -39 -245q0 -82 34.5 -121t111.5 -39q80 0 108 54q26 56 26 226h79q0 -106 -10 -170q-8 -48 -19 -79q33 -14 55 -21q34 -10 74 -10q121 0 121 102q0 84 -32 293h85q30 -206 30 -296q0 -86 -53.5 -137.5t-140.5 -51.5q-46 0 -95 17q-33 12 -81 40
q-20 -22 -43 -34q-44 -23 -99 -23q-229 0 -229 242q0 50 9 103l-33 -8q-83 -19 -134 -36q-37 -12 -41 -14l6 -59q9 -101 9 -202q0 -115 -70 -178t-183 -63v82q74 0 123 42.5t49 120.5q0 127 -20 277l63 65q61 18 138 34q68 14 108 20zM823 548l77 77l76 -77l-76 -75z
M660 548l75 77l77 -77l-76 -75zM758 669l60 61l61 -61l-60 -60z" />
    <glyph glyph-name="uniFD0E" unicode="&#xfd0e;" horiz-adv-x="1218" arabic-form="isolated" 
d="M461 495h78q-39 -169 -39 -245q0 -82 34.5 -121t111.5 -39q80 0 108 54q26 56 26 226h79q0 -106 -10 -170q-8 -48 -19 -79q33 -14 55 -21q34 -10 74 -10q121 0 121 102q0 84 -32 293h85q30 -206 30 -296q0 -86 -53.5 -137.5t-140.5 -51.5q-46 0 -95 17q-33 12 -81 40
q-20 -22 -43 -34q-44 -23 -99 -23q-229 0 -229 242q0 50 9 103l-33 -8q-83 -19 -134 -36q-37 -12 -41 -14l6 -59q9 -101 9 -202q0 -115 -70 -178t-183 -63v82q74 0 123 42.5t49 120.5q0 127 -20 277l63 65q61 18 138 34q68 14 108 20z" />
    <glyph glyph-name="uniFD0F" unicode="&#xfd0f;" horiz-adv-x="1272" arabic-form="isolated" 
d="M1016 518q91 0 151 -60.5t60 -152.5q0 -139 -109.5 -222t-291.5 -83h-120q-284 0 -284 242q0 50 9 103l-33 -8q-83 -19 -134 -36q-37 -12 -41 -14l6 -59q9 -101 9 -202q0 -115 -70 -178t-183 -63v82q74 0 123 42.5t49 120.5q0 127 -20 277l63 65q61 18 138 34
q68 14 108 20l15 69h78q-39 -169 -39 -245q0 -86 43 -123l3 -2q44 54 112 133q136 156 210 208t148 52zM699 90h115q148 0 237.5 54.5t89.5 146.5q0 58 -39.5 97.5t-97.5 39.5q-55 0 -112.5 -42.5t-150.5 -150.5q-105 -124 -118 -140q37 -5 76 -5z" />
    <glyph glyph-name="uniFD10" unicode="&#xfd10;" horiz-adv-x="1272" arabic-form="isolated" 
d="M1016 518q91 0 151 -60.5t60 -152.5q0 -139 -109.5 -222t-291.5 -83h-120q-284 0 -284 242q0 50 9 103l-33 -8q-83 -19 -134 -36q-37 -12 -41 -14l6 -59q9 -101 9 -202q0 -115 -70 -178t-183 -63v82q74 0 123 42.5t49 120.5q0 127 -20 277l63 65q61 18 138 34
q68 14 108 20l15 69h78q-39 -169 -39 -245q0 -86 43 -123l3 -2q44 54 112 133q136 156 210 208t148 52zM699 90h115q148 0 237.5 54.5t89.5 146.5q0 58 -39.5 97.5t-97.5 39.5q-55 0 -112.5 -42.5t-150.5 -150.5q-105 -124 -118 -140q37 -5 76 -5zM684 627l75 76l77 -76
l-75 -75z" />
    <glyph glyph-name="uniFD17" unicode="&#xfd17;" horiz-adv-x="1505" arabic-form="final" 
d="M1319 440h79v-70q0 -106 -10 -170q-6 -40 -16 -69q14 -10 21 -14q50 -27 114 -27q10 0 10 -10v-69q0 -11 -10 -11q-55 0 -101 20q-34 16 -67 45q-19 -24 -49 -42q-43 -23 -97 -23q-43 0 -86 15q-40 15 -78 38q-17 -17 -39 -30q-43 -23 -97 -23q-108 0 -165.5 56.5
t-57.5 163.5q0 33 5 85q4 38 15 88q-63 -5 -108 -16q-80 -19 -125 -53.5t-45 -72.5q0 -25 15.5 -42.5t64.5 -50.5l44 -29q103 -66 103 -152t-77.5 -139t-213.5 -53q-146 0 -227 67.5t-81 204.5q0 95 45 228h80q-45 -116 -45 -213q0 -101 63 -149.5t198 -48.5q80 0 129 26.5
t49 66.5q0 19 -18 39t-59 48l-46 31q-57 39 -81 74t-24 83q0 92 93.5 158t279.5 85l71 -50q-29 -136 -29 -204q0 -141 142 -141q43 0 66.5 13t38.5 41q26 56 26 226h79q0 -106 -10 -170q-8 -47 -21 -83q24 -11 50 -17q39 -10 71 -10q43 0 66.5 13t38.5 41q26 56 26 226v70z
" />
    <glyph glyph-name="uniFD18" unicode="&#xfd18;" horiz-adv-x="1505" arabic-form="final" 
d="M1319 440h79v-70q0 -106 -10 -170q-6 -40 -16 -69q14 -10 21 -14q50 -27 114 -27q10 0 10 -10v-69q0 -11 -10 -11q-55 0 -101 20q-34 16 -67 45q-19 -24 -49 -42q-43 -23 -97 -23q-43 0 -86 15q-40 15 -78 38q-17 -17 -39 -30q-43 -23 -97 -23q-108 0 -165.5 56.5
t-57.5 163.5q0 33 5 85q4 38 15 88q-63 -5 -108 -16q-80 -19 -125 -53.5t-45 -72.5q0 -25 15.5 -42.5t64.5 -50.5l44 -29q103 -66 103 -152t-77.5 -139t-213.5 -53q-146 0 -227 67.5t-81 204.5q0 95 45 228h80q-45 -116 -45 -213q0 -101 63 -149.5t198 -48.5q80 0 129 26.5
t49 66.5q0 19 -18 39t-59 48l-46 31q-57 39 -81 74t-24 83q0 92 93.5 158t279.5 85l71 -50q-29 -136 -29 -204q0 -141 142 -141q43 0 66.5 13t38.5 41q26 56 26 226h79q0 -106 -10 -170q-8 -47 -21 -83q24 -11 50 -17q39 -10 71 -10q43 0 66.5 13t38.5 41q26 56 26 226v70z
M257 -349l75 75l76 -73l75 73l76 -75l-76 -76l-75 74l-75 -74z" />
    <glyph glyph-name="uniFD19" unicode="&#xfd19;" horiz-adv-x="1505" arabic-form="final" 
d="M1319 440h79v-70q0 -106 -10 -170q-6 -40 -16 -69q14 -10 21 -14q50 -27 114 -27q10 0 10 -10v-69q0 -11 -10 -11q-55 0 -101 20q-34 16 -67 45q-19 -24 -49 -42q-43 -23 -97 -23q-43 0 -86 15q-40 15 -78 38q-17 -17 -39 -30q-43 -23 -97 -23q-108 0 -165.5 56.5
t-57.5 163.5q0 33 5 85q4 38 15 88q-63 -5 -108 -16q-80 -19 -125 -53.5t-45 -72.5q0 -25 15.5 -42.5t64.5 -50.5l44 -29q103 -66 103 -152t-77.5 -139t-213.5 -53q-146 0 -227 67.5t-81 204.5q0 95 45 228h80q-45 -116 -45 -213q0 -101 63 -149.5t198 -48.5q80 0 129 26.5
t49 66.5q0 19 -18 39t-59 48l-46 31q-57 39 -81 74t-24 83q0 92 93.5 158t279.5 85l71 -50q-29 -136 -29 -204q0 -141 142 -141q43 0 66.5 13t38.5 41q26 56 26 226h79q0 -106 -10 -170q-8 -47 -21 -83q24 -11 50 -17q39 -10 71 -10q43 0 66.5 13t38.5 41q26 56 26 226v70z
M1062 547l77 77l76 -77l-76 -75zM899 547l75 77l77 -77l-76 -75zM997 668l60 61l61 -61l-60 -60z" />
    <glyph glyph-name="uniFD1A" unicode="&#xfd1a;" horiz-adv-x="1505" arabic-form="final" 
d="M1319 440h79v-70q0 -106 -10 -170q-6 -40 -16 -69q14 -10 21 -14q50 -27 114 -27q10 0 10 -10v-69q0 -11 -10 -11q-55 0 -101 20q-34 16 -67 45q-19 -24 -49 -42q-43 -23 -97 -23q-43 0 -86 15q-40 15 -78 38q-17 -17 -39 -30q-43 -23 -97 -23q-108 0 -165.5 56.5
t-57.5 163.5q0 33 5 85q4 38 15 88q-63 -5 -108 -16q-80 -19 -125 -53.5t-45 -72.5q0 -25 15.5 -42.5t64.5 -50.5l44 -29q103 -66 103 -152t-77.5 -139t-213.5 -53q-146 0 -227 67.5t-81 204.5q0 95 45 228h80q-45 -116 -45 -213q0 -101 63 -149.5t198 -48.5q80 0 129 26.5
t49 66.5q0 19 -18 39t-59 48l-46 31q-57 39 -81 74t-24 83q0 92 93.5 158t279.5 85l71 -50q-29 -136 -29 -204q0 -141 142 -141q43 0 66.5 13t38.5 41q26 56 26 226h79q0 -106 -10 -170q-8 -47 -21 -83q24 -11 50 -17q39 -10 71 -10q43 0 66.5 13t38.5 41q26 56 26 226v70z
M257 -349l75 75l76 -73l75 73l76 -75l-76 -76l-75 74l-75 -74zM1059 547l77 77l76 -77l-76 -75zM896 547l75 77l77 -77l-76 -75zM994 668l60 61l61 -61l-60 -60z" />
    <glyph glyph-name="uniFD21" unicode="&#xfd21;" horiz-adv-x="1517" arabic-form="final" 
d="M1240 518q91 0 151 -60.5t60 -152.5q0 -139 -109.5 -222t-291.5 -83h-152q-110 0 -169 55.5t-59 164.5q0 33 5 85q4 38 15 88q-63 -5 -108 -16q-80 -19 -125 -53.5t-45 -72.5q0 -25 15.5 -42.5t64.5 -50.5l44 -29q103 -66 103 -152t-77.5 -139t-213.5 -53
q-146 0 -227 67.5t-81 204.5q0 95 45 228h80q-45 -116 -45 -213q0 -101 63 -149.5t198 -48.5q80 0 129 26.5t49 66.5q0 19 -18 39t-59 48l-46 31q-57 39 -81 74t-24 83q0 92 93.5 158t279.5 85l71 -50q-29 -132 -29 -204q0 -69 27 -102q89 109 161 189q107 118 172.5 159
t133.5 41zM888 90h150q148 0 237.5 54.5t89.5 146.5q0 58 -39.5 97.5t-97.5 39.5q-56 0 -112.5 -41.5t-150.5 -150.5q-44 -50 -120 -143q19 -3 43 -3zM1322 93l44 50q40 -31 72.5 -42t78.5 -11q10 0 10 -10v-69q0 -11 -10 -11q-57 0 -102 21t-93 72z" />
    <glyph glyph-name="uniFD22" unicode="&#xfd22;" horiz-adv-x="1517" arabic-form="final" 
d="M1240 518q91 0 151 -60.5t60 -152.5q0 -139 -109.5 -222t-291.5 -83h-152q-110 0 -169 55.5t-59 164.5q0 33 5 85q4 38 15 88q-63 -5 -108 -16q-80 -19 -125 -53.5t-45 -72.5q0 -25 15.5 -42.5t64.5 -50.5l44 -29q103 -66 103 -152t-77.5 -139t-213.5 -53
q-146 0 -227 67.5t-81 204.5q0 95 45 228h80q-45 -116 -45 -213q0 -101 63 -149.5t198 -48.5q80 0 129 26.5t49 66.5q0 19 -18 39t-59 48l-46 31q-57 39 -81 74t-24 83q0 92 93.5 158t279.5 85l71 -50q-29 -132 -29 -204q0 -69 27 -102q89 109 161 189q107 118 172.5 159
t133.5 41zM888 90h150q148 0 237.5 54.5t89.5 146.5q0 58 -39.5 97.5t-97.5 39.5q-56 0 -112.5 -41.5t-150.5 -150.5q-44 -50 -120 -143q19 -3 43 -3zM1322 93l44 50q40 -31 72.5 -42t78.5 -11q10 0 10 -10v-69q0 -11 -10 -11q-57 0 -102 21t-93 72zM257 -348l75 75l76 -73
l75 73l76 -75l-76 -76l-75 74l-75 -74z" />
    <glyph glyph-name="uniFD23" unicode="&#xfd23;" horiz-adv-x="1517" arabic-form="final" 
d="M1240 518q91 0 151 -60.5t60 -152.5q0 -139 -109.5 -222t-291.5 -83h-152q-110 0 -169 55.5t-59 164.5q0 33 5 85q4 38 15 88q-63 -5 -108 -16q-80 -19 -125 -53.5t-45 -72.5q0 -25 15.5 -42.5t64.5 -50.5l44 -29q103 -66 103 -152t-77.5 -139t-213.5 -53
q-146 0 -227 67.5t-81 204.5q0 95 45 228h80q-45 -116 -45 -213q0 -101 63 -149.5t198 -48.5q80 0 129 26.5t49 66.5q0 19 -18 39t-59 48l-46 31q-57 39 -81 74t-24 83q0 92 93.5 158t279.5 85l71 -50q-29 -132 -29 -204q0 -69 27 -102q89 109 161 189q107 118 172.5 159
t133.5 41zM888 90h150q148 0 237.5 54.5t89.5 146.5q0 58 -39.5 97.5t-97.5 39.5q-56 0 -112.5 -41.5t-150.5 -150.5q-44 -50 -120 -143q19 -3 43 -3zM1322 93l44 50q40 -31 72.5 -42t78.5 -11q10 0 10 -10v-69q0 -11 -10 -11q-57 0 -102 21t-93 72zM935 637l75 76l77 -76
l-75 -75z" />
    <glyph glyph-name="uniFD24" unicode="&#xfd24;" horiz-adv-x="1517" arabic-form="final" 
d="M1240 518q91 0 151 -60.5t60 -152.5q0 -139 -109.5 -222t-291.5 -83h-152q-110 0 -169 55.5t-59 164.5q0 33 5 85q4 38 15 88q-63 -5 -108 -16q-80 -19 -125 -53.5t-45 -72.5q0 -25 15.5 -42.5t64.5 -50.5l44 -29q103 -66 103 -152t-77.5 -139t-213.5 -53
q-146 0 -227 67.5t-81 204.5q0 95 45 228h80q-45 -116 -45 -213q0 -101 63 -149.5t198 -48.5q80 0 129 26.5t49 66.5q0 19 -18 39t-59 48l-46 31q-57 39 -81 74t-24 83q0 92 93.5 158t279.5 85l71 -50q-29 -132 -29 -204q0 -69 27 -102q89 109 161 189q107 118 172.5 159
t133.5 41zM888 90h150q148 0 237.5 54.5t89.5 146.5q0 58 -39.5 97.5t-97.5 39.5q-56 0 -112.5 -41.5t-150.5 -150.5q-44 -50 -120 -143q19 -3 43 -3zM1322 93l44 50q40 -31 72.5 -42t78.5 -11q10 0 10 -10v-69q0 -11 -10 -11q-57 0 -102 21t-93 72zM257 -348l75 75l76 -73
l75 73l76 -75l-76 -76l-75 74l-75 -74zM935 637l75 76l77 -76l-75 -75z" />
    <glyph glyph-name="uniFD29" unicode="&#xfd29;" horiz-adv-x="1259" arabic-form="final" 
d="M461 495h77q-39 -175 -39 -245q1 -83 36 -121.5t106 -38.5q43 0 67 13t39 41q26 56 26 226h78q0 -106 -10 -170q-8 -47 -21 -83q18 -8 51 -17q39 -10 71 -10q43 0 66.5 13t38.5 41q26 56 26 226v70h79v-70q0 -106 -10 -170q-6 -40 -16 -69q14 -10 21 -14q50 -27 114 -27
q10 0 10 -10v-69q0 -11 -10 -11q-55 0 -101 20q-34 16 -67 45q-19 -24 -49 -42q-43 -23 -97 -23q-43 0 -86 15q-39 15 -79 38q-16 -17 -39 -30q-41 -23 -97 -23q-108 0 -166 60.5t-58 181.5q-1 45 7 103l-31 -8q-83 -19 -134 -36q-37 -12 -41 -14l6 -59q9 -101 9 -202
q0 -115 -70 -178t-183 -63v82q74 0 123 42.5t49 120.5q0 127 -20 277l63 65q61 18 138 34q68 14 108 20zM818 547l77 77l76 -77l-76 -75zM655 547l75 77l77 -77l-76 -75zM753 668l60 61l61 -61l-60 -60z" />
    <glyph glyph-name="uniFD2A" unicode="&#xfd2a;" horiz-adv-x="1259" arabic-form="final" 
d="M461 495h77q-39 -175 -39 -245q1 -83 36 -121.5t106 -38.5q43 0 67 13t39 41q26 56 26 226h78q0 -106 -10 -170q-8 -47 -21 -83q18 -8 51 -17q39 -10 71 -10q43 0 66.5 13t38.5 41q26 56 26 226v70h79v-70q0 -106 -10 -170q-6 -40 -16 -69q14 -10 21 -14q50 -27 114 -27
q10 0 10 -10v-69q0 -11 -10 -11q-55 0 -101 20q-34 16 -67 45q-19 -24 -49 -42q-43 -23 -97 -23q-43 0 -86 15q-39 15 -79 38q-16 -17 -39 -30q-41 -23 -97 -23q-108 0 -166 60.5t-58 181.5q-1 45 7 103l-31 -8q-83 -19 -134 -36q-37 -12 -41 -14l6 -59q9 -101 9 -202
q0 -115 -70 -178t-183 -63v82q74 0 123 42.5t49 120.5q0 127 -20 277l63 65q61 18 138 34q68 14 108 20z" />
    <glyph glyph-name="uniFD2B" unicode="&#xfd2b;" horiz-adv-x="1287" arabic-form="final" 
d="M1016 518q91 0 151 -60.5t60 -152.5q0 -139 -109.5 -222t-291.5 -83h-120q-284 0 -284 242q0 50 9 103l-33 -8q-83 -19 -134 -36q-37 -12 -41 -14l6 -59q9 -101 9 -202q0 -115 -70 -178t-183 -63v82q74 0 123 42.5t49 120.5q0 127 -20 277l63 65q61 18 138 34
q68 14 108 20l15 69h78q-39 -169 -39 -245q0 -86 43 -123l3 -2q44 54 112 133q136 156 210 208t148 52zM699 90h115q148 0 237.5 54.5t89.5 146.5q0 58 -39.5 97.5t-97.5 39.5q-55 0 -112.5 -42.5t-150.5 -150.5q-105 -124 -118 -140q37 -5 76 -5zM1092 93l44 50
q40 -31 72.5 -42t78.5 -11q10 0 10 -10v-69q0 -11 -10 -11q-57 0 -102 21t-93 72z" />
    <glyph glyph-name="uniFD2C" unicode="&#xfd2c;" horiz-adv-x="1287" arabic-form="final" 
d="M1016 518q91 0 151 -60.5t60 -152.5q0 -139 -109.5 -222t-291.5 -83h-120q-284 0 -284 242q0 50 9 103l-33 -8q-83 -19 -134 -36q-37 -12 -41 -14l6 -59q9 -101 9 -202q0 -115 -70 -178t-183 -63v82q74 0 123 42.5t49 120.5q0 127 -20 277l63 65q61 18 138 34
q68 14 108 20l15 69h78q-39 -169 -39 -245q0 -86 43 -123l3 -2q44 54 112 133q136 156 210 208t148 52zM699 90h115q148 0 237.5 54.5t89.5 146.5q0 58 -39.5 97.5t-97.5 39.5q-55 0 -112.5 -42.5t-150.5 -150.5q-105 -124 -118 -140q37 -5 76 -5zM1092 93l44 50
q40 -31 72.5 -42t78.5 -11q10 0 10 -10v-69q0 -11 -10 -11q-57 0 -102 21t-93 72zM684 627l75 76l77 -76l-75 -75z" />
    <glyph glyph-name="uniFE82" unicode="&#x622;" horiz-adv-x="289" arabic-form="final" 
d="M85 600h85v-406q0 -54 27.5 -79t91.5 -25q10 0 10 -10v-69q0 -11 -10 -11q-101 0 -152.5 50.5t-51.5 140.5v409zM58 754q23 0 63.5 -18.5t63.5 -18.5q45 0 80 26l-1 -66q-33 -25 -77 -25q-23 0 -60.5 18.5t-56.5 18.5q-43 0 -49 -39h-55q0 45 24.5 74.5t67.5 29.5z" />
    <glyph glyph-name="uniFE84" unicode="&#x623;" horiz-adv-x="289" arabic-form="final" 
d="M85 600h85v-406q0 -54 27.5 -79t91.5 -25q10 0 10 -10v-69q0 -11 -10 -11q-101 0 -152.5 50.5t-51.5 140.5v409zM146 715h109l-18 -60h-162q-37 0 -75 -12v58q28 10 40 11l30 3l-8 10q-15 22 -15 47q0 39 27 64.5t67 25.5q32 0 76 -20v-58q-39 15 -63 15q-22 0 -36 -11.5
t-14 -31.5q0 -17 13 -29q12 -10 29 -12z" />
    <glyph glyph-name="uniFE86" unicode="&#x624;" horiz-adv-x="531" arabic-form="final" 
d="M265 475q86 0 139 -57t59 -158q0 -7 1.5 -42.5t2.5 -58.5l3 -69h61q10 0 10 -10v-69q0 -11 -10 -11h-62q-5 -37 -18 -68q-66 -147 -331 -147v82q134 0 202 44q53 35 65 89h-82q-122 0 -191 61t-69 171q0 105 61.5 174t158.5 69zM389 90l-4 56l-7 104q-5 66 -35.5 100.5
t-82.5 34.5q-57 0 -93.5 -42.5t-36.5 -106.5q0 -72 46.5 -109t134.5 -37h78zM283 642h100l-22 -73h-125q-52 0 -106 -17v70q39 13 54 16l6 2l-4 3q-18 23 -18 51q0 41 28.5 68.5t76.5 27.5q34 0 73 -19v-67q-42 13 -68 13q-21 0 -34.5 -10t-13.5 -27q0 -19 16 -29
q13 -7 37 -9z" />
    <glyph glyph-name="uniFE88" unicode="&#x625;" horiz-adv-x="289" arabic-form="final" 
d="M85 725h85v-531q0 -54 27.5 -79t91.5 -25q10 0 10 -10v-69q0 -11 -10 -11q-101 0 -152.5 50.5t-51.5 140.5v534zM146 -194h110l-18 -60h-162q-37 0 -75 -12v58q26 9 40 12q16 2 30 2l-9 11q-15 21 -15 46q0 39 27 64t67 25q35 0 76 -19v-58q-42 15 -63 15q-22 0 -36 -12
t-14 -31q0 -17 14 -29q12 -11 28 -12z" />
    <glyph glyph-name="uniFE8A" unicode="&#x626;" horiz-adv-x="679" arabic-form="final" 
d="M485 34v85q124 -29 194 -29q10 0 10 -10v-69q0 -11 -10 -11h-9q-44 -99 -123 -153q-91 -62 -224 -62q-136 0 -209.5 69t-73.5 203q0 95 45 228h80q-45 -116 -45 -213q0 -102 54.5 -149.5t167.5 -47.5q151 0 227 98q12 15 23 35q-102 25 -107 26zM515 313h100l-22 -73
h-125q-52 0 -106 -17v70q39 13 54 16l6 2l-4 3q-18 22 -18 51q0 41 28.5 68.5t76.5 27.5q34 0 73 -19v-67q-42 13 -68 13q-21 0 -34.5 -10t-13.5 -27q0 -19 16 -29q13 -7 37 -9z" />
    <glyph glyph-name="uniFE8B" unicode="&#x626;" horiz-adv-x="333" arabic-form="initial" 
d="M167 485h85q30 -210 30 -294q0 -90 -51.5 -140.5t-152.5 -50.5h-78q-10 0 -10 11v69q0 10 10 10h78q64 0 92.5 25t28.5 79q0 74 -32 291zM230 612h100l-22 -73h-125q-52 0 -106 -17v70q39 13 54 16l6 2l-4 3q-18 23 -18 51q0 41 28.5 68.5t76.5 27.5q34 0 73 -19v-67
q-42 13 -68 13q-21 0 -34.5 -10t-13.5 -27q0 -19 16 -29q13 -7 37 -9z" />
    <glyph glyph-name="uniFE8C" unicode="&#x626;" horiz-adv-x="370" arabic-form="medial" 
d="M156 370h79q0 -96 -8 -165q-4 -33 -12 -62q34 -25 69 -38q40 -15 86 -15q10 0 10 -10v-69q0 -11 -10 -11q-98 0 -185 78q-25 -34 -63 -53q-49 -25 -122 -25q-10 0 -10 11v69q0 10 10 10q98 0 129 53q17 28 22 76t5 151zM222 515h100l-22 -73h-125q-52 0 -106 -17v70
q39 13 54 16l6 2l-4 3q-18 22 -18 51q0 41 28.5 68.5t76.5 27.5q34 0 73 -19v-67q-42 13 -68 13q-21 0 -34.5 -10t-13.5 -27q0 -19 16 -29q13 -7 37 -9z" />
    <glyph glyph-name="uniFE8E" unicode="&#x627;" horiz-adv-x="289" arabic-form="final" 
d="M85 725h85v-531q0 -54 27.5 -79t91.5 -25q10 0 10 -10v-69q0 -11 -10 -11q-101 0 -152.5 50.5t-51.5 140.5v534z" />
    <glyph glyph-name="uniFE90" unicode="&#x628;" horiz-adv-x="837" arabic-form="final" 
d="M664 370h78q0 -106 -10 -170q-8 -44 -19 -77l10 -6q50 -27 114 -27q10 0 10 -10v-69q0 -11 -10 -11q-55 0 -101 20q-32 15 -59 38q-19 -22 -43 -35q-32 -18 -79 -23h-4h-258q-121 0 -187 59t-66 170q0 79 30 211h80q-25 -124 -25 -190q0 -84 43 -122t144 -38h232
q69 2 94 54q26 56 26 226zM348 -148l75 75l77 -75l-75 -76z" />
    <glyph glyph-name="uniFE91" unicode="&#x628;" horiz-adv-x="259" arabic-form="initial" 
d="M89 485h85q30 -210 30 -294q0 -90 -51.5 -140.5t-152.5 -50.5q-10 0 -10 11v69q0 10 10 10q65 0 93.5 25t28.5 79q0 67 -33 291zM23 -152l75 75l77 -75l-75 -76z" />
    <glyph glyph-name="uniFE92" unicode="&#x628;" horiz-adv-x="300" arabic-form="medial" 
d="M127 370h78q0 -106 -10 -170q-8 -44 -19 -77l10 -6q50 -27 114 -27q10 0 10 -10v-69q0 -11 -10 -11q-55 0 -101 20q-32 15 -59 38q-19 -22 -43 -35q-41 -23 -97 -23q-10 0 -10 11v69q0 10 10 10q74 0 101 54q26 56 26 226zM68 -154l75 75l77 -75l-75 -76z" />
    <glyph glyph-name="uniFE94" unicode="&#x629;" horiz-adv-x="536" arabic-form="final" 
d="M362 538h85v-357q0 -47 20 -69t69 -22q10 0 10 -10v-69q0 -11 -10 -11q-87 0 -131 50q-34 -19 -75 -35q-42 -15 -88 -15q-90 0 -146 53t-56 139q0 70 42 134.5t136 108.5q58 27 144 39v64zM283 374q-75 -24 -116.5 -69.5t-41.5 -105.5q0 -51 32 -80t87 -29q36 0 74 8
q27 6 53 18q-9 31 -9 73v204q-44 -8 -79 -19zM207 686l75 76l76 -74l75 74l76 -76l-76 -75l-75 73l-75 -73z" />
    <glyph glyph-name="uniFE96" unicode="&#x62a;" horiz-adv-x="837" arabic-form="final" 
d="M664 370h78q0 -106 -10 -170q-8 -44 -19 -77l10 -6q50 -27 114 -27q10 0 10 -10v-69q0 -11 -10 -11q-55 0 -101 20q-32 15 -59 38q-19 -22 -43 -35q-32 -18 -80 -23h-3h-14h-3h-241q-121 0 -187 59t-66 170q0 79 30 211h80q-25 -124 -25 -190q0 -84 43 -122t144 -38h222
h3q74 0 101 54q26 56 26 226zM296 528l75 76l76 -74l75 74l76 -76l-76 -75l-75 73l-75 -73z" />
    <glyph glyph-name="uniFE97" unicode="&#x62a;" horiz-adv-x="373" arabic-form="initial" 
d="M167 485h85q30 -210 30 -294q0 -90 -51.5 -140.5t-152.5 -50.5h-78q-10 0 -10 11v69q0 10 10 10h78q64 0 92.5 25t28.5 79q0 74 -32 291zM46 637l75 76l76 -74l75 74l76 -76l-76 -75l-75 73l-75 -73z" />
    <glyph glyph-name="uniFE98" unicode="&#x62a;" horiz-adv-x="370" arabic-form="medial" 
d="M156 370h79q0 -96 -8 -165q-4 -33 -12 -62q34 -25 69 -38q40 -15 86 -15q10 0 10 -10v-69q0 -11 -10 -11q-98 0 -185 78q-25 -34 -63 -53q-49 -25 -122 -25q-10 0 -10 11v69q0 10 10 10q98 0 129 53q17 28 22 76t5 151zM43 528l75 76l76 -74l75 74l76 -76l-76 -75l-75 73
l-75 -73z" />
    <glyph glyph-name="uniFE9A" unicode="&#x62b;" horiz-adv-x="837" arabic-form="final" 
d="M664 370h78q0 -106 -10 -170q-8 -44 -19 -77l10 -6q50 -27 114 -27q10 0 10 -10v-69q0 -11 -10 -11q-55 0 -101 20q-32 15 -59 38q-19 -22 -43 -35q-32 -18 -80 -23h-3h-14h-3h-241q-121 0 -187 59t-66 170q0 79 30 211h80q-25 -124 -25 -190q0 -84 43 -122t144 -38h222
h3q74 0 101 54q26 56 26 226zM444 528l77 77l76 -77l-76 -75zM281 528l75 77l77 -77l-76 -75zM379 649l60 61l61 -61l-60 -60z" />
    <glyph glyph-name="uniFE9B" unicode="&#x62b;" horiz-adv-x="380" arabic-form="initial" 
d="M167 485h85q30 -210 30 -294q0 -90 -51.5 -140.5t-152.5 -50.5h-78q-10 0 -10 11v69q0 10 10 10h78q64 0 92.5 25t28.5 79q0 74 -32 291zM202 638l77 77l76 -77l-76 -75zM39 638l75 77l77 -77l-76 -75zM137 759l60 61l61 -61l-60 -60z" />
    <glyph glyph-name="uniFE9C" unicode="&#x62b;" horiz-adv-x="370" arabic-form="medial" 
d="M156 370h79q0 -96 -8 -165q-4 -33 -12 -62q34 -25 69 -38q40 -15 86 -15q10 0 10 -10v-69q0 -11 -10 -11q-98 0 -185 78q-25 -34 -63 -53q-49 -25 -122 -25q-10 0 -10 11v69q0 10 10 10q98 0 129 53q17 28 22 76t5 151zM196 528l77 77l76 -77l-76 -75zM33 528l75 77
l77 -77l-76 -75zM131 649l60 61l61 -61l-60 -60z" />
    <glyph glyph-name="uniFE9E" unicode="&#x62c;" horiz-adv-x="651" arabic-form="final" 
d="M195 538q38 0 75 -16.5t73 -44t72.5 -57.5t87.5 -61.5t104 -51.5l-23 -85q-19 0 -55 -2v-52q0 -78 122 -78q10 0 10 -10v-69q0 -11 -10 -11q-89 0 -137 38.5t-48 115.5v59q-21 -4 -52 -11q-125 -29 -206.5 -93t-81.5 -145q0 -73 53 -111t150 -38q98 0 228 37v-80
q-136 -47 -233 -47q-136 0 -210 59t-74 172q0 100 73 177t205 118q64 21 152 32q-31 17 -61 39q-10 8 -45.5 37t-48 37t-38.5 24.5t-46 22t-41 5.5q-51 0 -120 -24v80q55 34 125 34zM282 6l75 75l77 -75l-75 -76z" />
    <glyph glyph-name="uniFE9F" unicode="&#x62c;" horiz-adv-x="609" arabic-form="initial" 
d="M189 475q38 0 73.5 -14.5t69 -38.5t67.5 -50.5t83 -56t102 -49.5l-23 -85q-65 -13 -118.5 -37t-91 -47.5t-81 -46t-111 -36.5t-158.5 -14q-11 0 -11 11v69q0 10 11 10q78 0 146 13.5t100.5 26t93 42t80.5 38.5q21 10 47 19q-41 21 -76 45q-11 8 -37 28t-36.5 27.5
t-31.5 21.5t-34.5 19t-32 10t-36.5 5q-51 0 -120 -24v80q55 34 125 34zM181 -150l75 75l77 -75l-75 -76z" />
    <glyph glyph-name="uniFEA0" unicode="&#x62c;" horiz-adv-x="631" arabic-form="medial" 
d="M189 475q38 0 73.5 -14.5t69 -38.5t67.5 -50.5t83 -56t102 -49.5l-23 -85q-20 -3 -46 -11q0 -80 116 -80q10 0 10 -10v-69q0 -11 -10 -11q-93 0 -136 43q-39 41 -42 106q-44 -19 -73 -35q-8 -5 -44 -26.5t-49 -28t-49 -22t-64.5 -21t-74.5 -11t-98 -5.5q-11 0 -11 11v69
q0 10 11 10q78 0 146 13.5t100.5 26t93 42t80.5 38.5q21 10 47 19q-41 21 -76 45q-11 8 -37 28t-36.5 27.5t-31.5 21.5t-34.5 19t-32 10t-36.5 5q-51 0 -120 -24v80q55 34 125 34zM181 -151l75 75l77 -75l-75 -76z" />
    <glyph glyph-name="uniFEA2" unicode="&#x62d;" horiz-adv-x="651" arabic-form="final" 
d="M195 538q38 0 75 -16.5t73 -44t72.5 -57.5t87.5 -61.5t104 -51.5l-23 -85q-19 0 -55 -2v-52q0 -78 122 -78q10 0 10 -10v-69q0 -11 -10 -11q-89 0 -137 38.5t-48 115.5v59q-21 -4 -52 -11q-125 -29 -206.5 -93t-81.5 -145q0 -73 53 -111t150 -38q98 0 228 37v-80
q-136 -47 -233 -47q-136 0 -210 59t-74 172q0 100 73 177t205 118q64 21 152 32q-31 17 -61 39q-10 8 -45.5 37t-48 37t-38.5 24.5t-46 22t-41 5.5q-51 0 -120 -24v80q55 34 125 34z" />
    <glyph glyph-name="uniFEA3" unicode="&#x62d;" horiz-adv-x="609" arabic-form="initial" 
d="M189 475q38 0 73.5 -14.5t69 -38.5t67.5 -50.5t83 -56t102 -49.5l-23 -85q-65 -13 -118.5 -37t-91 -47.5t-81 -46t-111 -36.5t-158.5 -14q-11 0 -11 11v69q0 10 11 10q78 0 146 13.5t100.5 26t93 42t80.5 38.5q21 10 47 19q-41 21 -76 45q-11 8 -37 28t-36.5 27.5
t-31.5 21.5t-34.5 19t-32 10t-36.5 5q-51 0 -120 -24v80q55 34 125 34z" />
    <glyph glyph-name="uniFEA4" unicode="&#x62d;" horiz-adv-x="631" arabic-form="medial" 
d="M189 475q38 0 73.5 -14.5t69 -38.5t67.5 -50.5t83 -56t102 -49.5l-23 -85q-20 -3 -46 -11q0 -80 116 -80q10 0 10 -10v-69q0 -11 -10 -11q-93 0 -136 43q-39 41 -42 106q-44 -19 -73 -35q-8 -5 -44 -26.5t-49 -28t-49 -22t-64.5 -21t-74.5 -11t-98 -5.5q-11 0 -11 11v69
q0 10 11 10q78 0 146 13.5t100.5 26t93 42t80.5 38.5q21 10 47 19q-41 21 -76 45q-11 8 -37 28t-36.5 27.5t-31.5 21.5t-34.5 19t-32 10t-36.5 5q-51 0 -120 -24v80q55 34 125 34z" />
    <glyph glyph-name="uniFEA6" unicode="&#x62e;" horiz-adv-x="651" arabic-form="final" 
d="M195 538q38 0 75 -16.5t73 -44t72.5 -57.5t87.5 -61.5t104 -51.5l-23 -85q-19 0 -55 -2v-52q0 -78 122 -78q10 0 10 -10v-69q0 -11 -10 -11q-89 0 -137 38.5t-48 115.5v59q-21 -4 -52 -11q-125 -29 -206.5 -93t-81.5 -145q0 -73 53 -111t150 -38q98 0 228 37v-80
q-136 -47 -233 -47q-136 0 -210 59t-74 172q0 100 73 177t205 118q64 21 152 32q-31 17 -61 39q-10 8 -45.5 37t-48 37t-38.5 24.5t-46 22t-41 5.5q-51 0 -120 -24v80q55 34 125 34zM349 626l75 76l77 -76l-75 -75z" />
    <glyph glyph-name="uniFEA7" unicode="&#x62e;" horiz-adv-x="609" arabic-form="initial" 
d="M189 475q38 0 73.5 -14.5t69 -38.5t67.5 -50.5t83 -56t102 -49.5l-23 -85q-65 -13 -118.5 -37t-91 -47.5t-81 -46t-111 -36.5t-158.5 -14q-11 0 -11 11v69q0 10 11 10q78 0 146 13.5t100.5 26t93 42t80.5 38.5q21 10 47 19q-41 21 -76 45q-11 8 -37 28t-36.5 27.5
t-31.5 21.5t-34.5 19t-32 10t-36.5 5q-51 0 -120 -24v80q55 34 125 34zM155 634l75 76l77 -76l-75 -75z" />
    <glyph glyph-name="uniFEA8" unicode="&#x62e;" horiz-adv-x="631" arabic-form="medial" 
d="M189 475q38 0 73.5 -14.5t69 -38.5t67.5 -50.5t83 -56t102 -49.5l-23 -85q-20 -3 -46 -11q0 -80 116 -80q10 0 10 -10v-69q0 -11 -10 -11q-93 0 -136 43q-39 41 -42 106q-44 -19 -73 -35q-8 -5 -44 -26.5t-49 -28t-49 -22t-64.5 -21t-74.5 -11t-98 -5.5q-11 0 -11 11v69
q0 10 11 10q78 0 146 13.5t100.5 26t93 42t80.5 38.5q21 10 47 19q-41 21 -76 45q-11 8 -37 28t-36.5 27.5t-31.5 21.5t-34.5 19t-32 10t-36.5 5q-51 0 -120 -24v80q55 34 125 34zM155 634l75 76l77 -76l-75 -75z" />
    <glyph glyph-name="uniFEAA" unicode="&#x62f;" horiz-adv-x="518" arabic-form="final" 
d="M15 34v85q100 -29 181 -29q82 0 151 21q-16 31 -26 63q-42 133 -74 311h90q31 -199 64 -299q17 -51 44.5 -73.5t72.5 -22.5q10 0 10 -10v-69q0 -11 -10 -11q-77 0 -129 52q-39 -24 -87 -38q-51 -14 -106 -14q-51 0 -85.5 6.5t-95.5 27.5z" />
    <glyph glyph-name="uniFEAC" unicode="&#x630;" horiz-adv-x="518" arabic-form="final" 
d="M15 34v85q100 -29 181 -29q82 0 151 21q-16 31 -26 63q-42 133 -74 311h90q31 -199 64 -299q17 -51 44.5 -73.5t72.5 -22.5q10 0 10 -10v-69q0 -11 -10 -11q-77 0 -129 52q-39 -24 -87 -38q-51 -14 -106 -14q-51 0 -85.5 6.5t-95.5 27.5zM212 632l75 76l77 -76l-75 -75z
" />
    <glyph glyph-name="uniFEAE" unicode="&#x631;" horiz-adv-x="341" arabic-form="final" 
d="M120 440h85q16 -121 22 -203l3 -37l4 -25q5 -52 32.5 -68.5t73.5 -16.5q10 0 10 -10v-69q0 -11 -10 -11q-63 0 -96 35l-6 8v-17q0 -115 -68.5 -178t-184.5 -63v82q77 0 124.5 42t47.5 121q0 148 -37 410z" />
    <glyph glyph-name="uniFEB0" unicode="&#x632;" horiz-adv-x="341" arabic-form="final" 
d="M120 440h85q16 -121 22 -203l3 -37l4 -25q5 -52 32.5 -68.5t73.5 -16.5q10 0 10 -10v-69q0 -11 -10 -11q-63 0 -96 35l-6 8v-17q0 -115 -68.5 -178t-184.5 -63v82q77 0 124.5 42t47.5 121q0 148 -37 410zM78 593l75 76l77 -76l-75 -75z" />
    <glyph glyph-name="uniFEB2" unicode="&#x633;" horiz-adv-x="1320" arabic-form="final" 
d="M452 440h85q12 -78 25 -183q9 -82 10 -136q26 -13 57 -21q39 -10 71 -10q43 0 66.5 13t38.5 41q26 56 26 226h79q0 -106 -10 -170q-8 -47 -21 -83q24 -11 50 -17q39 -10 71 -10q43 0 66.5 13t38.5 41q26 56 26 226v70h79v-70q0 -106 -10 -170q-6 -35 -15 -68l23 -15
q50 -27 114 -27q10 0 10 -10v-69q0 -11 -10 -11q-55 0 -101 20q-33 15 -68 47q-22 -28 -51 -44q-43 -23 -97 -23q-43 0 -86 15q-40 15 -78 38q-17 -17 -39 -30q-43 -23 -97 -23q-37 0 -81 14q-27 10 -56 24q-5 -37 -13 -64q-26 -89 -93.5 -139t-173.5 -50q-118 0 -183 70.5
t-65 201.5q0 95 45 228h80q-45 -116 -45 -213q0 -197 176 -197q101 0 148 54t47 170q0 78 -39 341z" />
    <glyph glyph-name="uniFEB3" unicode="&#x633;" horiz-adv-x="863" arabic-form="initial" 
d="M117 370h79q0 -106 -10 -170q-8 -50 -20 -80q22 -12 57 -20q39 -10 71 -10q43 0 66.5 13t38.5 41q26 56 26 226h79q0 -106 -10 -170q-8 -48 -19 -79q33 -14 55 -21q34 -10 74 -10q121 0 121 102q0 84 -32 293h85q30 -206 30 -296q0 -86 -53.5 -137.5t-140.5 -51.5
q-46 0 -95 17q-33 12 -81 40q-20 -22 -42 -34q-43 -23 -97 -23q-43 0 -86 15q-35 13 -84 41q-15 -18 -40 -33q-40 -23 -89 -23q-10 0 -10 11v69q0 10 10 10q65 0 91 54q26 56 26 226z" />
    <glyph glyph-name="uniFEB4" unicode="&#x633;" horiz-adv-x="913" arabic-form="medial" 
d="M117 370h79q0 -106 -10 -170q-8 -50 -20 -80q22 -12 57 -20q39 -10 71 -10q43 0 66.5 13t38.5 41q26 56 26 226h79q0 -106 -10 -170q-8 -47 -21 -83q24 -11 50 -17q39 -10 71 -10q43 0 66.5 13t38.5 41q26 56 26 226v70h79v-70q0 -106 -10 -170q-6 -40 -16 -69
q14 -10 21 -14q50 -27 114 -27q10 0 10 -10v-69q0 -11 -10 -11q-55 0 -101 20q-34 16 -67 45q-19 -24 -49 -42q-43 -23 -97 -23q-43 0 -86 15q-40 15 -78 38q-17 -17 -39 -30q-43 -23 -97 -23q-43 0 -86 15q-35 13 -84 41q-15 -18 -40 -33q-40 -23 -89 -23q-10 0 -10 11v69
q0 10 10 10q65 0 91 54q26 56 26 226z" />
    <glyph glyph-name="uniFEB6" unicode="&#x634;" horiz-adv-x="1320" arabic-form="final" 
d="M452 440h85q12 -78 25 -183q9 -82 10 -136q26 -13 57 -21q39 -10 71 -10q43 0 66.5 13t38.5 41q26 56 26 226h79q0 -106 -10 -170q-8 -47 -21 -83q24 -11 50 -17q39 -10 71 -10q43 0 66.5 13t38.5 41q26 56 26 226v70h79v-70q0 -106 -10 -170q-6 -35 -15 -68l23 -15
q50 -27 114 -27q10 0 10 -10v-69q0 -11 -10 -11q-55 0 -101 20q-33 15 -68 47q-22 -28 -51 -44q-43 -23 -97 -23q-43 0 -86 15q-40 15 -78 38q-17 -17 -39 -30q-43 -23 -97 -23q-37 0 -81 14q-27 10 -56 24q-5 -37 -13 -64q-26 -89 -93.5 -139t-173.5 -50q-118 0 -183 70.5
t-65 201.5q0 95 45 228h80q-45 -116 -45 -213q0 -197 176 -197q101 0 148 54t47 170q0 78 -39 341zM870 550l77 77l76 -77l-76 -75zM707 550l75 77l77 -77l-76 -75zM805 671l60 61l61 -61l-60 -60z" />
    <glyph glyph-name="uniFEB7" unicode="&#x634;" horiz-adv-x="863" arabic-form="initial" 
d="M117 370h79q0 -106 -10 -170q-8 -50 -20 -80q22 -12 57 -20q39 -10 71 -10q43 0 66.5 13t38.5 41q26 56 26 226h79q0 -106 -10 -170q-8 -48 -19 -79q33 -14 55 -21q34 -10 74 -10q121 0 121 102q0 84 -32 293h85q30 -206 30 -296q0 -86 -53.5 -137.5t-140.5 -51.5
q-46 0 -95 17q-33 12 -81 40q-20 -22 -42 -34q-43 -23 -97 -23q-43 0 -86 15q-35 13 -84 41q-15 -18 -40 -33q-40 -23 -89 -23q-10 0 -10 11v69q0 10 10 10q65 0 91 54q26 56 26 226zM470 549l77 77l76 -77l-76 -75zM307 549l75 77l77 -77l-76 -75zM405 670l60 61l61 -61
l-60 -60z" />
    <glyph glyph-name="uniFEB8" unicode="&#x634;" horiz-adv-x="913" arabic-form="medial" 
d="M117 370h79q0 -106 -10 -170q-8 -50 -20 -80q22 -12 57 -20q39 -10 71 -10q43 0 66.5 13t38.5 41q26 56 26 226h79q0 -106 -10 -170q-8 -47 -21 -83q24 -11 50 -17q39 -10 71 -10q43 0 66.5 13t38.5 41q26 56 26 226v70h79v-70q0 -106 -10 -170q-6 -40 -16 -69
q14 -10 21 -14q50 -27 114 -27q10 0 10 -10v-69q0 -11 -10 -11q-55 0 -101 20q-34 16 -67 45q-19 -24 -49 -42q-43 -23 -97 -23q-43 0 -86 15q-40 15 -78 38q-17 -17 -39 -30q-43 -23 -97 -23q-43 0 -86 15q-35 13 -84 41q-15 -18 -40 -33q-40 -23 -89 -23q-10 0 -10 11v69
q0 10 10 10q65 0 91 54q26 56 26 226zM464 548l77 77l76 -77l-76 -75zM301 548l75 77l77 -77l-76 -75zM399 669l60 61l61 -61l-60 -60z" />
    <glyph glyph-name="uniFEBA" unicode="&#x635;" horiz-adv-x="1271" arabic-form="final" 
d="M452 440h85q12 -78 25 -183l3 -31q56 62 111 115q96 95 172 136t149 41q90 0 150.5 -60.5t60.5 -152.5q0 -68 -29 -124q-16 -30 -37 -54l15 -10q50 -27 114 -27q10 0 10 -10v-69q0 -11 -10 -11q-55 0 -101 20q-38 18 -81 59q-49 -35 -118 -57q-72 -22 -165 -22
q-90 0 -206 22l-34 6q-3 -26 -11 -54q-26 -89 -93.5 -139t-173.5 -50q-118 0 -183 70.5t-65 201.5q0 95 45 228h80q-45 -116 -45 -213q0 -197 176 -197q101 0 148 54t47 170q0 78 -39 341zM608 103q96 -13 186 -13q147 0 237.5 56.5t90.5 144.5q0 58 -39.5 97.5t-97.5 39.5
q-64 0 -131.5 -41.5t-160.5 -131.5q-18 -18 -122 -121q1 -9 1 -26q21 -4 36 -5z" />
    <glyph glyph-name="uniFEBB" unicode="&#x635;" horiz-adv-x="997" arabic-form="initial" 
d="M159 370h77q-15 -141 -32 -214l-1 -1q1 -1 39 -14q12 -4 18 -7q105 124 166 188q108 114 176 152.5t139 38.5q91 0 151 -60.5t60 -152.5q0 -135 -109.5 -217.5t-291.5 -82.5q-175 0 -331 62q-28 10 -51 21q-21 -24 -42 -41q-56 -42 -127 -42q-10 0 -10 11v69q0 10 10 10
q54 0 84 19.5t45 66.5q21 67 30 194zM427 97q50 -7 112 -7q148 0 237.5 53.5t89.5 142.5q0 58 -39.5 97.5t-97.5 39.5q-57 0 -117.5 -40t-155.5 -143q-41 -44 -112 -128q42 -9 83 -15z" />
    <glyph glyph-name="uniFEBC" unicode="&#x635;" horiz-adv-x="1016" arabic-form="medial" 
d="M159 370h77q-15 -141 -32 -214l-1 -1q1 -1 39 -14q12 -4 18 -7q105 124 166 188q108 114 176 152.5t139 38.5q91 0 151 -60.5t60 -152.5q0 -135 -109.5 -217.5t-291.5 -82.5q-175 0 -331 62q-28 10 -51 21q-21 -24 -42 -41q-56 -42 -127 -42q-10 0 -10 11v69q0 10 10 10
q54 0 84 19.5t45 66.5q21 67 30 194zM427 97q50 -7 112 -7q148 0 237.5 53.5t89.5 142.5q0 58 -39.5 97.5t-97.5 39.5q-57 0 -117.5 -40t-155.5 -143q-41 -44 -112 -128q42 -9 83 -15zM821 93l44 50q40 -31 72.5 -42t78.5 -11q10 0 10 -10v-69q0 -11 -10 -11q-57 0 -102 21
t-93 72z" />
    <glyph glyph-name="uniFEBE" unicode="&#x636;" horiz-adv-x="1271" arabic-form="final" 
d="M452 440h85q12 -78 25 -183l3 -31q56 62 111 115q96 95 172 136t149 41q90 0 150.5 -60.5t60.5 -152.5q0 -68 -29 -124q-16 -30 -37 -54l15 -10q50 -27 114 -27q10 0 10 -10v-69q0 -11 -10 -11q-55 0 -101 20q-38 18 -81 59q-49 -35 -118 -57q-72 -22 -165 -22
q-90 0 -206 22l-34 6q-3 -26 -11 -54q-26 -89 -93.5 -139t-173.5 -50q-118 0 -183 70.5t-65 201.5q0 95 45 228h80q-45 -116 -45 -213q0 -197 176 -197q101 0 148 54t47 170q0 78 -39 341zM608 103q96 -13 186 -13q147 0 237.5 56.5t90.5 144.5q0 58 -39.5 97.5t-97.5 39.5
q-64 0 -131.5 -41.5t-160.5 -131.5q-18 -18 -122 -121q1 -9 1 -26q21 -4 36 -5zM693 632l75 76l77 -76l-75 -75z" />
    <glyph glyph-name="uniFEBF" unicode="&#x636;" horiz-adv-x="997" arabic-form="initial" 
d="M159 370h77q-15 -141 -32 -214l-1 -1q1 -1 39 -14q12 -4 18 -7q105 124 166 188q108 114 176 152.5t139 38.5q91 0 151 -60.5t60 -152.5q0 -135 -109.5 -217.5t-291.5 -82.5q-175 0 -331 62q-28 10 -51 21q-21 -24 -42 -41q-56 -42 -127 -42q-10 0 -10 11v69q0 10 10 10
q54 0 84 19.5t45 66.5q21 67 30 194zM427 97q50 -7 112 -7q148 0 237.5 53.5t89.5 142.5q0 58 -39.5 97.5t-97.5 39.5q-57 0 -117.5 -40t-155.5 -143q-41 -44 -112 -128q42 -9 83 -15zM394 629l75 76l77 -76l-75 -75z" />
    <glyph glyph-name="uniFEC0" unicode="&#x636;" horiz-adv-x="1016" arabic-form="medial" 
d="M159 370h77q-15 -141 -32 -214l-1 -1q1 -1 39 -14q12 -4 18 -7q105 124 166 188q108 114 176 152.5t139 38.5q91 0 151 -60.5t60 -152.5q0 -135 -109.5 -217.5t-291.5 -82.5q-175 0 -331 62q-28 10 -51 21q-21 -24 -42 -41q-56 -42 -127 -42q-10 0 -10 11v69q0 10 10 10
q54 0 84 19.5t45 66.5q21 67 30 194zM427 97q50 -7 112 -7q148 0 237.5 53.5t89.5 142.5q0 58 -39.5 97.5t-97.5 39.5q-57 0 -117.5 -40t-155.5 -143q-41 -44 -112 -128q42 -9 83 -15zM821 93l44 50q40 -31 72.5 -42t78.5 -11q10 0 10 -10v-69q0 -11 -10 -11q-57 0 -102 21
t-93 72zM394 629l75 76l77 -76l-75 -75z" />
    <glyph glyph-name="uniFEC2" unicode="&#x637;" horiz-adv-x="880" arabic-form="final" 
d="M183 725h85v-285q0 -55 -10 -118q-3 -22 -11 -66q34 38 47 51q113 122 181.5 166.5t137.5 44.5q89 0 149 -60.5t60 -152.5q0 -136 -110.5 -220.5t-291.5 -84.5q-233 0 -405 43v85q66 -14 106 -19q19 24 62 73v543zM408 90q147 0 237.5 56.5t90.5 144.5q0 58 -39 97.5
t-96 39.5q-55 0 -115 -44t-160 -154l-117 -131q98 -9 199 -9zM685 93l44 50q40 -31 72.5 -42t78.5 -11q10 0 10 -10v-69q0 -11 -10 -11q-57 0 -102 21t-93 72z" />
    <glyph glyph-name="uniFEC3" unicode="&#x637;" horiz-adv-x="792" arabic-form="initial" 
d="M113 725h85v-285q0 -55 -10 -118l-12 -71q30 36 91 101q89 95 149.5 130.5t122.5 35.5q89 0 148.5 -60.5t59.5 -152.5q0 -136 -110.5 -220.5t-291.5 -84.5h-345q-10 0 -10 11v69q0 10 10 10h45l68 84v551zM134 90h199q147 0 237.5 56.5t90.5 144.5q0 58 -39 97.5
t-95 39.5q-55 0 -117 -47.5t-165 -163.5z" />
    <glyph glyph-name="uniFEC4" unicode="&#x637;" horiz-adv-x="806" arabic-form="medial" 
d="M113 725h85v-285q0 -55 -10 -118l-12 -71q30 36 91 101q89 95 149.5 130.5t122.5 35.5q89 0 148.5 -60.5t59.5 -152.5q0 -136 -110.5 -220.5t-291.5 -84.5h-345q-10 0 -10 11v69q0 10 10 10h45l68 84v551zM134 90h199q147 0 237.5 56.5t90.5 144.5q0 58 -39 97.5
t-95 39.5q-55 0 -117 -47.5t-165 -163.5zM611 93l44 50q40 -31 72.5 -42t78.5 -11q10 0 10 -10v-69q0 -11 -10 -11q-57 0 -102 21t-93 72z" />
    <glyph glyph-name="uniFEC6" unicode="&#x638;" horiz-adv-x="880" arabic-form="final" 
d="M183 725h85v-285q0 -55 -10 -118q-3 -22 -11 -66q34 38 47 51q113 122 181.5 166.5t137.5 44.5q89 0 149 -60.5t60 -152.5q0 -136 -110.5 -220.5t-291.5 -84.5q-233 0 -405 43v85q66 -14 106 -19q19 24 62 73v543zM408 90q147 0 237.5 56.5t90.5 144.5q0 58 -39 97.5
t-96 39.5q-55 0 -115 -44t-160 -154l-117 -131q98 -9 199 -9zM685 93l44 50q40 -31 72.5 -42t78.5 -11q10 0 10 -10v-69q0 -11 -10 -11q-57 0 -102 21t-93 72zM360 632l75 76l77 -76l-75 -75z" />
    <glyph glyph-name="uniFEC7" unicode="&#x638;" horiz-adv-x="792" arabic-form="initial" 
d="M113 725h85v-285q0 -55 -10 -118l-12 -71q30 36 91 101q89 95 149.5 130.5t122.5 35.5q89 0 148.5 -60.5t59.5 -152.5q0 -136 -110.5 -220.5t-291.5 -84.5h-345q-10 0 -10 11v69q0 10 10 10h45l68 84v551zM134 90h199q147 0 237.5 56.5t90.5 144.5q0 58 -39 97.5
t-95 39.5q-55 0 -117 -47.5t-165 -163.5zM286 632l75 76l77 -76l-75 -75z" />
    <glyph glyph-name="uniFEC8" unicode="&#x638;" horiz-adv-x="806" arabic-form="medial" 
d="M113 725h85v-285q0 -55 -10 -118l-12 -71q30 36 91 101q89 95 149.5 130.5t122.5 35.5q89 0 148.5 -60.5t59.5 -152.5q0 -136 -110.5 -220.5t-291.5 -84.5h-345q-10 0 -10 11v69q0 10 10 10h45l68 84v551zM134 90h199q147 0 237.5 56.5t90.5 144.5q0 58 -39 97.5
t-95 39.5q-55 0 -117 -47.5t-165 -163.5zM611 93l44 50q40 -31 72.5 -42t78.5 -11q10 0 10 -10v-69q0 -11 -10 -11q-57 0 -102 21t-93 72zM286 632l75 76l77 -76l-75 -75z" />
    <glyph glyph-name="uniFECA" unicode="&#x639;" horiz-adv-x="596" arabic-form="final" 
d="M319 528q93 0 154.5 -52t61.5 -128q0 -101 -132 -187l-27 -17q42 -23 94 -38q55 -16 126 -16q10 0 10 -10v-69q0 -11 -10 -11q-130 0 -248 72q-17 10 -44 30q-28 -16 -54 -33q-113 -74 -113 -145q0 -52 53 -80.5t151 -28.5t227 37v-80q-140 -47 -232 -47
q-141 0 -212.5 49t-71.5 142q0 105 128 195q23 17 52 34q-18 33 -37 62q-53 83 -90 123l-36 40l-34 -17v80q60 42 138.5 68.5t145.5 26.5zM300 184l37 23q112 72 112 126q0 46 -40 75.5t-103 29.5q-54 0 -126 -23q-21 -6 -38 -13q39 -41 78 -94q37 -51 80 -124z" />
    <glyph glyph-name="uniFECB" unicode="&#x639;" horiz-adv-x="543" arabic-form="initial" 
d="M518 132l-18 -89q-240 -43 -500 -43q-10 0 -10 11v69q0 10 10 10q62 0 148 2l-15 10q-87 66 -87 170q0 90 64.5 151.5t160.5 61.5q65 0 170 -41v-80q-96 32 -157 32q-69 0 -110.5 -35.5t-41.5 -96.5t55.5 -112t155.5 -46l-2 -1q31 4 50 7q46 6 127 20z" />
    <glyph glyph-name="uniFECC" unicode="&#x639;" horiz-adv-x="590" arabic-form="medial" 
d="M313 485q93 0 154.5 -52t61.5 -128q0 -96 -84 -180q-12 -11 -25 -22q36 -6 53 -8q58 -5 117 -5q10 0 10 -10v-69q0 -11 -10 -11q-102 0 -175 19q-48 12 -85 28l-43 -15q-108 -32 -287 -32q-10 1 -10 11v69q0 10 10 10q72 0 133 3q52 3 92 10q-5 9 -32 55q-44 72 -94 128
q-24 28 -37 41q-11 -5 -33 -17v80q60 42 138.5 68.5t145.5 26.5zM338 130q46 32 75.5 74.5t29.5 79.5q0 51 -38.5 81t-104.5 30q-54 0 -126 -23q-26 -8 -39 -13q41 -41 81 -99q45 -64 90 -147q22 10 32 17z" />
    <glyph glyph-name="uniFECE" unicode="&#x63a;" horiz-adv-x="596" arabic-form="final" 
d="M319 528q93 0 154.5 -52t61.5 -128q0 -101 -132 -187l-27 -17q42 -23 94 -38q55 -16 126 -16q10 0 10 -10v-69q0 -11 -10 -11q-130 0 -248 72q-17 10 -44 30q-28 -16 -54 -33q-113 -74 -113 -145q0 -52 53 -80.5t151 -28.5t227 37v-80q-140 -47 -232 -47
q-141 0 -212.5 49t-71.5 142q0 105 128 195q23 17 52 34q-18 33 -37 62q-53 83 -90 123l-36 40l-34 -17v80q60 42 138.5 68.5t145.5 26.5zM300 184l37 23q112 72 112 126q0 46 -40 75.5t-103 29.5q-54 0 -126 -23q-21 -6 -38 -13q39 -41 78 -94q37 -51 80 -124zM229 678
l75 76l77 -76l-75 -75z" />
    <glyph glyph-name="uniFECF" unicode="&#x63a;" horiz-adv-x="543" arabic-form="initial" 
d="M518 132l-18 -89q-240 -43 -500 -43q-10 0 -10 11v69q0 10 10 10q62 0 148 2l-15 10q-87 66 -87 170q0 90 64.5 151.5t160.5 61.5q65 0 170 -41v-80q-96 32 -157 32q-69 0 -110.5 -35.5t-41.5 -96.5t55.5 -112t155.5 -46l-2 -1q31 4 50 7q46 6 127 20zM182 634l75 76
l77 -76l-75 -75z" />
    <glyph glyph-name="uniFED0" unicode="&#x63a;" horiz-adv-x="590" arabic-form="medial" 
d="M313 485q93 0 154.5 -52t61.5 -128q0 -96 -84 -180q-12 -11 -25 -22q36 -6 53 -8q58 -5 117 -5q10 0 10 -10v-69q0 -11 -10 -11q-102 0 -175 19q-48 12 -85 28l-43 -15q-108 -32 -287 -32q-10 1 -10 11v69q0 10 10 10q72 0 133 3q52 3 92 10q-5 9 -32 55q-44 72 -94 128
q-24 28 -37 41q-11 -5 -33 -17v80q60 42 138.5 68.5t145.5 26.5zM338 130q46 32 75.5 74.5t29.5 79.5q0 51 -38.5 81t-104.5 30q-54 0 -126 -23q-26 -8 -39 -13q41 -41 81 -99q45 -64 90 -147q22 10 32 17zM220 634l75 76l77 -76l-75 -75z" />
    <glyph glyph-name="uniFED2" unicode="&#x641;" horiz-adv-x="964" arabic-form="final" 
d="M692 485q93 0 155 -62.5t62 -157.5q0 -68 -44 -124q-17 -22 -46 -46l34 -2q55 -3 111 -3q10 0 10 -10v-69q0 -11 -10 -11q-79 0 -171 14q-52 7 -97 21q-49 -16 -102 -23q-87 -12 -174 -12q-10 1 -10 11v69q0 10 10 10q56 0 107 3l33 2q-22 18 -43 42q-43 55 -43 127
q0 94 63 157.5t155 63.5zM788 162q35 43 35 96q0 60 -37.5 98.5t-96.5 38.5q-56 0 -93 -37.5t-37 -99.5q0 -53 33 -95q34 -42 92 -61q69 19 104 60zM61 388h80q-16 -87 -16 -138q0 -84 43 -122t144 -38h118q10 0 10 -10v-69q0 -11 -10 -11h-137q-121 0 -187 59t-66 169
q0 72 21 160zM613 632l75 76l77 -76l-75 -75z" />
    <glyph glyph-name="uniFED3" unicode="&#x641;" horiz-adv-x="521" arabic-form="initial" 
d="M262 485q91 0 152.5 -65t61.5 -161q0 -120 -71.5 -189.5t-194.5 -69.5h-210q-10 1 -10 11v69q0 10 10 10h111q-9 19 -27 46q-45 71 -45 140q0 87 64.5 148t158.5 61zM195 90h24q79 0 125 41t46 117q0 65 -37.5 105.5t-98.5 40.5q-56 0 -93 -37t-37 -92q0 -45 36 -107
q16 -27 25 -47zM188 632l75 76l77 -76l-75 -75z" />
    <glyph glyph-name="uniFED4" unicode="&#x641;" horiz-adv-x="544" arabic-form="medial" 
d="M272 485q93 0 155 -62.5t62 -157.5q0 -68 -44 -124q-17 -22 -46 -46l34 -2q55 -3 111 -3q10 0 10 -10v-69q0 -11 -10 -11q-79 0 -171 14q-52 7 -97 21q-49 -16 -102 -23q-87 -12 -174 -12q-10 1 -10 11v69q0 10 10 10q56 0 107 3l33 2q-22 18 -43 42q-43 55 -43 127
q0 94 63 157.5t155 63.5zM368 162q35 43 35 96q0 60 -37.5 98.5t-96.5 38.5q-56 0 -93 -37.5t-37 -99.5q0 -53 33 -95q34 -42 92 -61q69 19 104 60zM196 632l75 76l77 -76l-75 -75z" />
    <glyph glyph-name="uniFED6" unicode="&#x642;" horiz-adv-x="760" arabic-form="final" 
d="M494 475q86 0 139 -57t59 -158q0 -7 1.5 -42t2.5 -58l3 -70h61q10 0 10 -10v-69q0 -11 -10 -11h-62q-4 -33 -20 -66q-34 -71 -117 -110t-208 -39q-149 0 -231 67.5t-82 204.5q0 95 45 228h80q-45 -116 -45 -213q0 -101 63 -149.5t198 -48.5q83 0 140.5 26.5t81.5 70.5
q5 9 11 29h-80q-122 0 -191 61t-69 171q0 105 61.5 174t158.5 69zM610 200l-3 50q-5 66 -35.5 100.5t-82.5 34.5q-57 0 -93.5 -42.5t-36.5 -106.5q0 -72 46.5 -109t134.5 -37h77l-3 54q-2 38 -4 56zM339 631l75 76l76 -74l75 74l76 -76l-76 -75l-75 73l-75 -73z" />
    <glyph glyph-name="uniFED7" unicode="&#x642;" horiz-adv-x="521" arabic-form="initial" 
d="M262 485q91 0 152.5 -65t61.5 -161q0 -120 -71.5 -189.5t-194.5 -69.5h-210q-10 1 -10 11v69q0 10 10 10h111q-9 19 -27 46q-45 71 -45 140q0 87 64.5 148t158.5 61zM195 90h24q79 0 125 41t46 117q0 65 -37.5 105.5t-98.5 40.5q-56 0 -93 -37t-37 -92q0 -45 36 -107
q16 -27 25 -47zM114 631l75 76l76 -74l75 74l76 -76l-76 -75l-75 73l-75 -73z" />
    <glyph glyph-name="uniFED8" unicode="&#x642;" horiz-adv-x="544" arabic-form="medial" 
d="M272 485q93 0 155 -62.5t62 -157.5q0 -68 -44 -124q-17 -22 -46 -46l34 -2q55 -3 111 -3q10 0 10 -10v-69q0 -11 -10 -11q-79 0 -171 14q-52 7 -97 21q-49 -16 -102 -23q-87 -12 -174 -12q-10 1 -10 11v69q0 10 10 10q56 0 107 3l33 2q-22 18 -43 42q-43 55 -43 127
q0 94 63 157.5t155 63.5zM368 162q35 43 35 96q0 60 -37.5 98.5t-96.5 38.5q-56 0 -93 -37.5t-37 -99.5q0 -53 33 -95q34 -42 92 -61q69 19 104 60zM122 631l75 76l76 -74l75 74l76 -76l-76 -75l-75 73l-75 -73z" />
    <glyph glyph-name="uniFEDA" unicode="&#x643;" horiz-adv-x="877" arabic-form="final" 
d="M60 388h80q-16 -87 -16 -138q0 -84 43 -122t144 -38h118q91 0 158 14q50 10 91 31q-5 28 -5 56v534h85v-531q0 -54 27.5 -79t91.5 -25q10 0 10 -10v-69q0 -11 -10 -11q-103 0 -154 51q-12 14 -17 21q-55 -36 -114 -52q-71 -20 -161 -20h-2h-4h-3h-130q-121 0 -187 59
t-66 169q0 72 21 160zM444 430h100l-22 -73h-125q-52 0 -106 -17v70q37 12 53 16l6 2l-3 3q-18 23 -18 51q0 41 28.5 68.5t76.5 27.5q34 0 73 -19v-67q-42 13 -68 13q-21 0 -34.5 -10t-13.5 -27q0 -19 16 -29q13 -7 37 -9z" />
    <glyph glyph-name="uniFEDB" unicode="&#x643;" horiz-adv-x="581" arabic-form="initial" 
d="M410 795h128v-4l-370 -292l174 -76q204 -88 204 -223q0 -90 -71 -145t-192 -55h-283q-10 0 -10 11v69q0 10 10 10h291q73 0 121.5 30t48.5 76q0 41 -36.5 75t-124.5 73l-240 106v68z" />
    <glyph glyph-name="uniFEDC" unicode="&#x643;" horiz-adv-x="649" arabic-form="medial" 
d="M410 795h128v-4l-370 -292l174 -76q204 -88 204 -223q0 -90 -71 -145t-192 -55h-283q-10 0 -10 11v69q0 10 10 10h291q73 0 121.5 30t48.5 76q0 41 -36.5 75t-124.5 73l-240 106v68zM454 93l44 50q40 -31 72.5 -42t78.5 -11q10 0 10 -10v-69q0 -11 -10 -11q-57 0 -102 21
t-93 72z" />
    <glyph glyph-name="uniFEDE" unicode="&#x644;" horiz-adv-x="686" arabic-form="final" 
d="M489 725h85v-550q0 -41 30 -63t82 -22q10 0 10 -10v-69q0 -11 -10 -11q-74 0 -114 40l-2 1q-5 -38 -13 -66q-24 -88 -91 -139t-173 -51q-121 0 -187 70.5t-66 201.5q0 95 45 228h80q-45 -116 -45 -213q0 -93 45 -145t136 -52q99 0 143.5 54.5t44.5 172.5v623z" />
    <glyph glyph-name="uniFEDF" unicode="&#x644;" horiz-adv-x="289" arabic-form="initial" 
d="M119 725h85v-534q0 -90 -51.5 -140.5t-152.5 -50.5q-10 0 -10 11v69q0 10 10 10q64 0 91.5 25t27.5 79v531z" />
    <glyph glyph-name="uniFEE0" unicode="&#x644;" horiz-adv-x="318" arabic-form="medial" 
d="M114 725h85v-531q0 -54 27.5 -79t91.5 -25q10 0 10 -10v-69q0 -11 -10 -11q-103 0 -154 51l-12 14l-10 -11q-57 -54 -142 -54q-10 0 -10 11v69q0 10 10 10q41 0 75 14q28 11 45 26q-6 29 -6 61v534z" />
    <glyph glyph-name="uniFEE2" unicode="&#x645;" horiz-adv-x="669" arabic-form="final" 
d="M381 466q61 0 100 -36t62 -114l29 -99q19 -70 41 -98.5t56 -28.5q10 0 10 -10v-69q0 -11 -10 -11q-65 0 -110 53q-5 5 -13 17l-18 -70q-218 0 -311 64q-24 18 -38 37q-24 -6 -38 -21q-21 -22 -21 -74q0 -84 33 -281h-85q-33 205 -33 292q0 60 26 102t72 62q15 6 30 9
q5 38 14 66q24 85 78.5 147.5t125.5 62.5zM534 90l-10 23q-12 29 -28 77l-25 78q-17 57 -39.5 82.5t-55.5 25.5q-42 0 -82 -57t-63 -162q89 -50 212 -63q36 -4 91 -4z" />
    <glyph glyph-name="uniFEE3" unicode="&#x645;" horiz-adv-x="551" arabic-form="initial" 
d="M313 461q93 0 140.5 -93.5t62.5 -274.5l-67 -106q-103 0 -197 19q-87 16 -155 48l-5 -7q-35 -47 -92 -47q-10 1 -10 11v69q0 10 10 10q8 0 14.5 1.5t12 6.5t10.5 9.5t10.5 14t9.5 17.5t10 22.5t10.5 26t12 31t13.5 34.5q45 112 92.5 160t117.5 48zM280 91q78 -13 157 -13
q-9 141 -41 216q-34 76 -88 76q-42 0 -73 -35t-68 -130l-30 -71q62 -29 143 -43z" />
    <glyph glyph-name="uniFEE4" unicode="&#x645;" horiz-adv-x="572" arabic-form="medial" 
d="M283 466q61 0 100 -36t62 -114l29 -99q19 -70 41 -98.5t56 -28.5q10 0 10 -10v-69q0 -11 -10 -11q-65 0 -110 53q-5 5 -13 17l-18 -70q-104 0 -183 15q-68 14 -110 37q-19 -15 -39 -27q-44 -25 -98 -25q-10 0 -10 11v69q0 10 10 10q42 0 74 12l6 2l-2 2q-14 26 -14 55
q0 60 25.5 128.5t77.5 122.5t116 54zM436 90l-10 23q-12 29 -28 77l-25 78q-17 57 -39.5 82.5t-55.5 25.5q-42 0 -82 -57t-63 -162q89 -50 212 -63q36 -4 91 -4z" />
    <glyph glyph-name="uniFEE6" unicode="&#x646;" horiz-adv-x="677" arabic-form="final" 
d="M452 440h85q12 -78 25 -183q3 -26 7 -76l1 -6q5 -52 32.5 -68.5t73.5 -16.5q10 0 10 -10v-69q0 -11 -10 -11q-63 0 -96 35q-10 13 -11 14q-5 -46 -14 -75q-26 -89 -93.5 -139t-173.5 -50q-118 0 -183 70.5t-65 201.5q0 95 45 228h80q-45 -116 -45 -213q0 -197 176 -197
q101 0 148 54t47 170q0 78 -39 341zM229 470l75 76l77 -76l-75 -75z" />
    <glyph glyph-name="uniFEE7" unicode="&#x646;" horiz-adv-x="259" arabic-form="initial" 
d="M89 485h85q30 -210 30 -294q0 -90 -51.5 -140.5t-152.5 -50.5q-10 0 -10 11v69q0 10 10 10q65 0 93.5 25t28.5 79q0 67 -33 291zM48 632l75 76l77 -76l-75 -75z" />
    <glyph glyph-name="uniFEE8" unicode="&#x646;" horiz-adv-x="300" arabic-form="medial" 
d="M127 370h78q0 -106 -10 -170q-8 -44 -19 -77l10 -6q50 -27 114 -27q10 0 10 -10v-69q0 -11 -10 -11q-55 0 -101 20q-32 15 -59 38q-19 -22 -43 -35q-41 -23 -97 -23q-10 0 -10 11v69q0 10 10 10q74 0 101 54q26 56 26 226zM85 527l75 76l77 -76l-75 -75z" />
    <glyph glyph-name="uniFEE9" unicode="&#x647;" horiz-adv-x="823" arabic-form="isolated" 
d="M310 580v90q220 0 344 -101t124 -267q0 -93 -54 -236l-84 -79q-82 0 -164 17q-55 13 -119 33q-44 -15 -85 -24q-59 -13 -122 -13q-61 0 -135 23v85q72 -18 130 -18q32 0 56 4l9 2q-23 17 -42 41q-42 55 -42 127q0 94 62 157.5t153 63.5q93 0 153.5 -62.5t60.5 -157.5
q0 -68 -44 -124q-19 -24 -47 -48q4 0 5 -1q103 -15 172 -15q52 112 52 217q0 56 -23 106t-68 91t-120.5 65t-171.5 24zM435 162q35 43 35 96q0 60 -36.5 98.5t-95.5 38.5q-56 0 -91.5 -37.5t-35.5 -99.5q0 -52 32 -95q33 -42 90 -61q67 20 102 60z" />
    <glyph glyph-name="uniFEEA" unicode="&#x647;" horiz-adv-x="536" arabic-form="final" 
d="M362 538h85v-357q0 -47 20 -69t69 -22q10 0 10 -10v-69q0 -11 -10 -11q-87 0 -131 50q-34 -19 -75 -35q-42 -15 -88 -15q-90 0 -146 53t-56 139q0 70 42 134.5t136 108.5q58 27 144 39v64zM283 374q-75 -24 -116.5 -69.5t-41.5 -105.5q0 -51 32 -80t87 -29q36 0 74 8
q27 6 53 18q-9 31 -9 73v204q-44 -8 -79 -19z" />
    <glyph glyph-name="uniFEEB" unicode="&#x647;" horiz-adv-x="752" arabic-form="initial" 
d="M238 580l1 90q220 0 344 -101t124 -267q0 -93 -54 -236l-85 -79q-81 0 -163 17q-62 14 -121 34q-53 -19 -112 -26q-86 -12 -172 -12q-10 1 -10 11v69q0 10 10 10q56 0 104 3l34 3q-23 18 -41 41q-43 55 -43 127q0 94 62 157.5t153 63.5q94 0 154.5 -62.5t60.5 -157.5
q0 -68 -44 -124q-19 -24 -47 -48q4 0 5 -1q104 -15 172 -15q51 110 51 217q0 119 -97.5 202.5t-285.5 83.5zM364 162q34 41 34 96q0 60 -36.5 98.5t-95.5 38.5q-55 0 -91 -37.5t-36 -99.5q0 -53 33 -95q32 -42 89 -61q68 19 103 60z" />
    <glyph glyph-name="uniFEEC" unicode="&#x647;" horiz-adv-x="553" arabic-form="medial" 
d="M272 560h67q68 -60 109 -133.5t41 -145.5t-37 -124q-15 -23 -42 -47q24 -8 47 -12q48 -8 96 -8q10 0 10 -11v-69q0 -10 -10 -10q-26 0 -56 5q-28 7 -40 11q38 -50 38 -96q0 -61 -45.5 -98t-121.5 -37q-86 0 -151 50t-95 137l-9 30q-46 -2 -73 -2q-10 0 -10 11v69
q0 10 10 10q43 0 63 1v8q0 119 51.5 242.5t157.5 218.5zM143 98l35 6q226 41 226 174q0 94 -74 175q-20 22 -31 32q-38 -33 -63 -71q-45 -67 -69 -146t-24 -150v-20zM196 17q-23 -4 -38 -7q0 -1 1 -2q23 -67 68.5 -100.5t103.5 -33.5q40 0 63.5 15.5t23.5 44.5q0 32 -20 66
q-17 27 -55 65q-63 -31 -147 -48z" />
    <glyph glyph-name="uniFEEE" unicode="&#x648;" horiz-adv-x="531" arabic-form="final" 
d="M265 475q86 0 139 -57t59 -158q0 -7 1.5 -42.5t2.5 -58.5l3 -69h61q10 0 10 -10v-69q0 -11 -10 -11h-62q-5 -37 -18 -68q-66 -147 -331 -147v82q134 0 202 44q53 35 65 89h-82q-122 0 -191 61t-69 171q0 105 61.5 174t158.5 69zM389 90l-4 56l-7 104q-5 66 -35.5 100.5
t-82.5 34.5q-57 0 -93.5 -42.5t-36.5 -106.5q0 -72 46.5 -109t134.5 -37h78z" />
    <glyph glyph-name="uniFEF0" unicode="&#x649;" horiz-adv-x="679" arabic-form="final" 
d="M485 34v85q124 -29 194 -29q10 0 10 -10v-69q0 -11 -10 -11h-9q-44 -99 -123 -153q-91 -62 -224 -62q-136 0 -209.5 69t-73.5 203q0 95 45 228h80q-45 -116 -45 -213q0 -102 54.5 -149.5t167.5 -47.5q151 0 227 98q12 15 23 35q-102 25 -107 26z" />
    <glyph glyph-name="uniFEF2" unicode="&#x64a;" horiz-adv-x="679" arabic-form="final" 
d="M485 34v85q124 -29 194 -29q10 0 10 -10v-69q0 -11 -10 -11h-9q-44 -99 -123 -153q-91 -62 -224 -62q-136 0 -209.5 69t-73.5 203q0 95 45 228h80q-45 -116 -45 -213q0 -102 54.5 -149.5t167.5 -47.5q151 0 227 98q12 15 23 35q-102 25 -107 26zM242 -348l75 75l76 -73
l75 73l76 -75l-76 -76l-75 74l-75 -74z" />
    <glyph glyph-name="uniFEF3" unicode="&#x64a;" horiz-adv-x="333" arabic-form="initial" 
d="M167 485h85q30 -210 30 -294q0 -90 -51.5 -140.5t-152.5 -50.5h-78q-10 0 -10 11v69q0 10 10 10h78q64 0 92.5 25t28.5 79q0 74 -32 291zM-17 -153l75 75l76 -73l75 73l76 -75l-76 -76l-75 74l-75 -74z" />
    <glyph glyph-name="uniFEF4" unicode="&#x64a;" horiz-adv-x="370" arabic-form="medial" 
d="M156 370h79q0 -96 -8 -165q-4 -33 -12 -62q34 -25 69 -38q40 -15 86 -15q10 0 10 -10v-69q0 -11 -10 -11q-98 0 -185 78q-25 -34 -63 -53q-49 -25 -122 -25q-10 0 -10 11v69q0 10 10 10q98 0 129 53q17 28 22 76t5 151zM18 -153l75 75l76 -73l75 73l76 -75l-76 -76
l-75 74l-75 -74z" />
    <glyph glyph-name=".notdef" horiz-adv-x="500" 
d="M0 0v725h500v-725h-500zM239 362l-220 334v-667zM260 362l221 -333v667zM250 346l-217 -327h433zM33 706l217 -328l216 328h-433z" />
    <glyph glyph-name=".null" 
 />
    <glyph glyph-name="nonmarkingreturn" horiz-adv-x="333" 
 />
    <glyph glyph-name="space" unicode=" " horiz-adv-x="237" 
 />
    <glyph glyph-name="exclam" unicode="!" horiz-adv-x="245" 
d="M151 212h-57l-20 294v219h97v-219zM180 0h-115v115h115v-115z" />
    <glyph glyph-name="quotedbl" unicode="&#x22;" horiz-adv-x="309" 
d="M180 725h102l-20 -240h-62zM27 725h102l-20 -240h-62z" />
    <glyph glyph-name="numbersign" unicode="#" horiz-adv-x="666" 
d="M65 538h142l26 187h74l-26 -187h156l26 187h74l-26 -187h134l-10 -71h-134l-24 -174h135l-10 -71h-135l-30 -222h-74l30 222h-156l-30 -222h-74l30 222h-141l10 71h141l24 174h-142zM271 467l-24 -174h156l24 174h-156z" />
    <glyph glyph-name="dollar" unicode="$" horiz-adv-x="587" 
d="M263 811h55v-73q103 -8 162 -68.5t58 -158.5h-94q-2 72 -37 108t-89 43v-248l15 -4q49 -13 82.5 -27t68.5 -37.5t53 -60.5t18 -86q0 -96 -67 -150.5t-170 -60.5v-85h-55v85q-104 8 -168 75.5t-62 166.5h94q2 -75 41 -117t95 -49v271l-22 6q-86 23 -137.5 75t-51.5 132
q0 81 61.5 131t149.5 59v73zM461 185q0 59 -34.5 87t-108.5 48v-257q61 4 102 35.5t41 86.5zM146 549q0 -45 28 -74t88 -46l1 -1v235q-49 -4 -83 -33t-34 -81z" />
    <glyph glyph-name="percent" unicode="%" horiz-adv-x="998" 
d="M200 310q-79 0 -121 57.5t-42 153.5t42 153.5t121 57.5q80 0 122.5 -57.5t42.5 -153.5t-42.5 -153.5t-122.5 -57.5zM200 365q89 0 89 156q0 157 -89 157q-42 0 -64.5 -41t-22.5 -116t22.5 -115.5t64.5 -40.5zM300 0h-101l500 725h101zM800 -7q-79 0 -121 57.5t-42 153.5
t42 153.5t121 57.5q80 0 122.5 -57.5t42.5 -153.5t-42.5 -153.5t-122.5 -57.5zM800 48q89 0 89 156q0 157 -89 157q-42 0 -64.5 -41t-22.5 -116t22.5 -115.5t64.5 -40.5z" />
    <glyph glyph-name="ampersand" unicode="&#x26;" horiz-adv-x="703" 
d="M269 -13q-109 0 -175 60.5t-66 151.5q0 81 49 137t134 85q-80 93 -80 164q0 69 54.5 111.5t140.5 42.5q76 0 131 -38t55 -118q0 -127 -150 -188l147 -156q29 68 35 154h94q-11 -126 -65 -221l162 -172h-131l-88 94q-101 -107 -247 -107zM269 66q115 0 189 89l-194 208
q-139 -50 -139 -160q0 -61 42.5 -99t101.5 -38zM228 592q0 -59 78 -137l2 -3q54 19 85.5 53t31.5 77q0 42 -27 61.5t-70 19.5q-42 0 -71 -18t-29 -53z" />
    <glyph glyph-name="quotesingle" unicode="'" horiz-adv-x="156" 
d="M27 725h102l-20 -240h-62z" />
    <glyph glyph-name="parenleft" unicode="(" horiz-adv-x="245" 
d="M32 275q0 138 41 254t97 196h75q-119 -190 -119 -450q0 -258 119 -450h-75q-56 81 -97 197t-41 253z" />
    <glyph glyph-name="parenright" unicode=")" horiz-adv-x="245" 
d="M213 275q0 -137 -41 -253t-97 -197h-75q119 192 119 450q0 259 -119 450h75q56 -80 97 -196t41 -254z" />
    <glyph glyph-name="asterisk" unicode="*" horiz-adv-x="352" 
d="M205 725v-119l113 43l23 -56l-115 -40l69 -97l-46 -35l-74 101l-68 -101l-53 34l70 98l-113 40l20 56l113 -43v119h61z" />
    <glyph glyph-name="plus" unicode="+" horiz-adv-x="678" 
d="M385 0h-91v226h-226v86h226v220h91v-220h226v-86h-226v-226z" />
    <glyph glyph-name="comma" unicode="," horiz-adv-x="245" 
d="M65 0v115h115v-123l-61 -131h-58l53 139h-49z" />
    <glyph glyph-name="hyphen" unicode="-" horiz-adv-x="405" 
d="M361 231h-318v86h318v-86z" />
    <glyph glyph-name="period" unicode="." horiz-adv-x="245" 
d="M180 0h-115v115h115v-115z" />
    <glyph glyph-name="slash" unicode="/" horiz-adv-x="377" 
d="M91 0h-91l285 725h92z" />
    <glyph glyph-name="zero" unicode="0" horiz-adv-x="661" 
d="M515 363q0 147 -49 223t-136 76q-88 0 -136.5 -75.5t-48.5 -223.5q0 -149 48.5 -224.5t136.5 -75.5t136.5 75.5t48.5 224.5zM612 363q0 -177 -70.5 -276.5t-211.5 -99.5t-211.5 99.5t-70.5 276.5t70.5 276t211.5 99t211.5 -99t70.5 -276z" />
    <glyph glyph-name="one" unicode="1" horiz-adv-x="368" 
d="M271 0h-91v567h-168v62q83 2 126 21t71 75h62v-725z" />
    <glyph glyph-name="two" unicode="2" horiz-adv-x="590" 
d="M302 738q103 0 166.5 -50t63.5 -140q0 -49 -20.5 -99t-53 -93.5t-84.5 -93t-102 -88.5t-118 -89h398v-85h-522v82q210 155 308 259t98 195q0 58 -36 92t-100 34q-65 0 -109.5 -39.5t-46.5 -123.5h-94q-2 108 67 173.5t185 65.5z" />
    <glyph glyph-name="three" unicode="3" horiz-adv-x="587" 
d="M282 63q74 0 119 36.5t45 103.5q0 138 -209 138h-15v83h12q97 0 145 28.5t48 91.5q0 56 -40 87t-101 31q-71 0 -111.5 -38.5t-46.5 -102.5h-94q8 98 75 157.5t179 59.5q103 0 169 -45t66 -139q0 -57 -30.5 -101t-87.5 -67q138 -45 138 -182q0 -104 -75.5 -160.5
t-186.5 -56.5q-121 0 -185 64t-73 163h94q9 -70 50 -110.5t115 -40.5z" />
    <glyph glyph-name="four" unicode="4" horiz-adv-x="624" 
d="M377 600l-259 -335h259v335zM602 265v-86h-133v-179h-92v179h-360v86l359 460h93v-460h133z" />
    <glyph glyph-name="five" unicode="5" horiz-adv-x="607" 
d="M302 63q68 0 115 47t47 128q0 84 -48.5 128t-114.5 44q-52 0 -89 -24.5t-51 -55.5l-91 5l47 390h416v-85h-342l-25 -206q58 55 156 55q100 0 169 -67.5t69 -182.5q0 -119 -75 -185.5t-183 -66.5q-118 0 -182.5 63.5t-75.5 159.5h94q24 -147 164 -147z" />
    <glyph glyph-name="six" unicode="6" horiz-adv-x="615" 
d="M153 232q0 -75 43 -122t115 -47q69 0 114 47.5t45 121.5q0 75 -44.5 123.5t-113.5 48.5q-71 0 -115 -48.5t-44 -123.5zM320 662q-83 0 -128.5 -75.5t-49.5 -204.5q58 101 191 101q102 0 168 -69t66 -177q0 -104 -71 -177t-184 -73q-264 0 -264 350q0 80 15 149t47 127
t88.5 91.5t132.5 33.5q99 0 155 -52t69 -129h-99q-9 49 -44.5 77t-91.5 28z" />
    <glyph glyph-name="seven" unicode="7" horiz-adv-x="513" 
d="M11 640v85h502v-85q-136 -109 -215 -273t-92 -367h-110q12 193 92.5 357t218.5 283h-396z" />
    <glyph glyph-name="eight" unicode="8" horiz-adv-x="626" 
d="M313 738q110 0 176 -52t66 -133q0 -49 -24.5 -94t-75.5 -73q64 -26 93 -75.5t29 -106.5q0 -101 -74.5 -159t-189.5 -58q-116 0 -190.5 58t-74.5 159q0 57 29 107t94 75q-51 28 -75.5 73t-24.5 94q0 81 66 133t176 52zM313 348q-77 0 -122.5 -40t-45.5 -104t45 -102.5
t123 -38.5q77 0 122.5 38.5t45.5 102.5t-45.5 104t-122.5 40zM463 542q0 54 -41 87t-109 33q-69 0 -110 -33t-41 -87q0 -55 41.5 -91t109.5 -36q67 0 108.5 36t41.5 91z" />
    <glyph glyph-name="nine" unicode="9" horiz-adv-x="610" 
d="M455 493q0 76 -43 122.5t-114 46.5q-70 0 -114.5 -47.5t-44.5 -121.5q0 -75 44.5 -123t113.5 -48q71 0 114.5 48t43.5 123zM288 63q82 0 128.5 75.5t50.5 204.5q-58 -101 -192 -101q-101 0 -167 69t-66 178q0 104 71 176.5t184 72.5q264 0 264 -350q0 -80 -15.5 -149.5
t-47.5 -127t-88.5 -91t-131.5 -33.5q-99 0 -155 52t-69 129h99q9 -49 44 -77t91 -28z" />
    <glyph glyph-name="colon" unicode=":" horiz-adv-x="245" 
d="M180 423h-115v115h115v-115zM180 0h-115v115h115v-115z" />
    <glyph glyph-name="semicolon" unicode=";" horiz-adv-x="245" 
d="M65 0v115h115v-123l-61 -131h-58l53 139h-49zM180 423h-115v115h115v-115z" />
    <glyph glyph-name="less" unicode="&#x3c;" horiz-adv-x="678" 
d="M78 307l513 227v-98l-399 -168l399 -165v-97l-513 223v78z" />
    <glyph glyph-name="equal" unicode="=" horiz-adv-x="678" 
d="M590 332h-501v87h501v-87zM590 130h-501v86h501v-86z" />
    <glyph glyph-name="greater" unicode="&#x3e;" horiz-adv-x="678" 
d="M601 307v-78l-513 -223v97l399 165l-399 168v98z" />
    <glyph glyph-name="question" unicode="?" horiz-adv-x="499" 
d="M258 738q93 0 159.5 -45.5t66.5 -130.5q0 -121 -135 -206q-50 -33 -67 -53.5t-17 -59.5v-31h-93v34q0 59 27.5 94.5t96.5 79.5q93 59 93 138q0 47 -37 75.5t-96 28.5q-76 0 -112.5 -42t-39.5 -97h-91q0 96 69 155.5t176 59.5zM278 0h-115v115h115v-115z" />
    <glyph glyph-name="at" unicode="@" horiz-adv-x="849" 
d="M614 153q-41 0 -70.5 24t-35.5 68q-46 -89 -152 -89q-63 0 -105.5 45t-42.5 134q0 92 56.5 162t148.5 70q84 0 115 -76l8 59h71l-29 -218q-16 -107 42 -107q40 0 67.5 48t27.5 129q0 122 -76 187.5t-202 65.5q-137 0 -224 -88t-87 -221q0 -125 73 -204.5t199 -79.5
q109 0 194 43l28 -69q-104 -49 -222 -49q-156 0 -254 102.5t-98 259.5q0 160 113 268t280 108q100 0 177.5 -33t126.5 -106.5t49 -179.5q0 -117 -52.5 -185t-125.5 -68zM414 492q-54 0 -86.5 -46.5t-32.5 -111.5q0 -105 83 -105q57 0 90 48t33 117q0 47 -22.5 72.5
t-64.5 25.5z" />
    <glyph glyph-name="A" unicode="A" horiz-adv-x="660" 
d="M0 0l269 725h118l273 -725h-110l-57 157h-333l-56 -157h-104zM325 622l-134 -378h270z" />
    <glyph glyph-name="B" unicode="B" horiz-adv-x="672" 
d="M86 0v725h261q255 0 255 -179q0 -52 -21 -95.5t-59 -64.5q110 -46 110 -172q0 -109 -71.5 -161.5t-188.5 -52.5h-286zM188 334v-248h185q154 0 154 127q0 63 -39 92t-121 29h-179zM188 639v-224h175q136 0 136 117q0 54 -36 80.5t-100 26.5h-175z" />
    <glyph glyph-name="C" unicode="C" horiz-adv-x="726" 
d="M595 231h99q-23 -117 -108 -180.5t-206 -63.5q-153 0 -241 104.5t-88 272.5t92 271t245 103q114 0 196 -64.5t106 -179.5h-99q-16 71 -70.5 114.5t-137.5 43.5q-100 0 -164 -76t-64 -212t64 -213.5t167 -77.5q84 0 137.5 42.5t71.5 115.5z" />
    <glyph glyph-name="D" unicode="D" horiz-adv-x="730" 
d="M575 363q0 71 -17 123t-43 81t-67 45.5t-78.5 21.5t-88.5 5h-93v-553h93q51 0 88.5 5t78.5 21.5t67 46t43 81t17 123.5zM86 725h198q90 0 159 -18.5t123.5 -59t83.5 -112.5t29 -172q0 -195 -104.5 -279t-290.5 -84h-198v725z" />
    <glyph glyph-name="E" unicode="E" horiz-adv-x="613" 
d="M86 0v725h492v-88h-390v-220h367v-88h-367v-241h390v-88h-492z" />
    <glyph glyph-name="F" unicode="F" horiz-adv-x="560" 
d="M86 0v725h471v-88h-369v-220h348v-88h-348v-329h-102z" />
    <glyph glyph-name="G" unicode="G" horiz-adv-x="770" 
d="M388 738q114 0 196 -60t104 -164h-99q-19 64 -70.5 101t-135.5 37q-100 0 -164 -76t-64 -212q0 -135 63 -213t165 -78q39 0 74.5 9t68 29.5t52 59t19.5 92.5v19h-192v88h288v-370h-80l-5 91q-65 -104 -229 -104q-153 0 -240.5 104.5t-87.5 272.5t92 271t245 103z" />
    <glyph glyph-name="H" unicode="H" horiz-adv-x="757" 
d="M569 725h102v-725h-102v329h-381v-329h-102v725h102v-308h381v308z" />
    <glyph glyph-name="I" unicode="I" horiz-adv-x="274" 
d="M188 725v-725h-102v725h102z" />
    <glyph glyph-name="J" unicode="J" horiz-adv-x="552" 
d="M364 231v494h102v-495q0 -118 -60 -180.5t-168 -62.5t-167.5 60.5t-59.5 176.5h95q0 -72 37.5 -113t94.5 -41q126 0 126 161z" />
    <glyph glyph-name="K" unicode="K" horiz-adv-x="666" 
d="M188 725v-365l327 365h127l-271 -296l302 -429h-122l-249 354l-114 -126v-228h-102v725h102z" />
    <glyph glyph-name="L" unicode="L" horiz-adv-x="571" 
d="M188 725v-637h383v-88h-485v725h102z" />
    <glyph glyph-name="M" unicode="M" horiz-adv-x="884" 
d="M496 0h-108l-200 632v-632h-102v725h171l185 -604l185 604h171v-725h-102v632z" />
    <glyph glyph-name="N" unicode="N" horiz-adv-x="755" 
d="M669 0h-149l-332 619v-619h-102v725h150l331 -617v617h102v-725z" />
    <glyph glyph-name="O" unicode="O" horiz-adv-x="782" 
d="M155 363q0 -136 66.5 -213t169.5 -77t169.5 77t66.5 213t-66.5 212.5t-169.5 76.5t-169.5 -76.5t-66.5 -212.5zM731 363q0 -166 -92.5 -271t-247.5 -105t-247.5 105t-92.5 271t92.5 270.5t247.5 104.5t247.5 -104.5t92.5 -270.5z" />
    <glyph glyph-name="P" unicode="P" horiz-adv-x="636" 
d="M86 725h227q147 0 224 -47t77 -172q0 -66 -21.5 -110t-63.5 -67.5t-93.5 -32.5t-122.5 -9h-125v-287h-102v725zM321 639h-133v-263h133q47 0 76 4t57.5 16.5t42 39.5t13.5 70t-13.5 70.5t-41.5 40.5t-58.5 17.5t-75.5 4.5z" />
    <glyph glyph-name="Q" unicode="Q" horiz-adv-x="782" 
d="M731 363q0 -160 -86 -263l86 -86l-62 -62l-89 89q-80 -54 -189 -54q-155 0 -247.5 105t-92.5 271t92.5 270.5t247.5 104.5t247.5 -104.5t92.5 -270.5zM155 363q0 -136 66.5 -213t169.5 -77q66 0 122 35l-67 67l62 63l67 -68q52 76 52 193q0 136 -66.5 212.5t-169.5 76.5
t-169.5 -76.5t-66.5 -212.5z" />
    <glyph glyph-name="R" unicode="R" horiz-adv-x="679" 
d="M528 0l-157 306q-19 -1 -55 -1h-128v-305h-102v725h230q72 0 122.5 -8.5t93.5 -30.5t64.5 -64.5t21.5 -105.5q0 -155 -144 -194l168 -322h-114zM324 639h-136v-248h136q46 0 75.5 3.5t58 15.5t42 38t13.5 66q0 33 -10 56t-25.5 36.5t-41.5 21t-51 9.5t-61 2z" />
    <glyph glyph-name="S" unicode="S" horiz-adv-x="641" 
d="M56 540q0 65 42 112t99.5 66.5t120.5 19.5q105 0 179.5 -49.5t95.5 -148.5h-99q-17 58 -68 85t-112 27q-54 0 -104 -26t-50 -80q0 -85 118 -111l84 -19q39 -8 68.5 -17t64.5 -26t57.5 -38t38 -55t15.5 -76q0 -101 -80.5 -159t-195.5 -58q-127 0 -205.5 64t-92.5 174h100
q29 -152 200 -152q80 0 124.5 33.5t44.5 88.5q0 54 -40 82t-116 46l-90 19q-86 19 -142.5 67t-56.5 131z" />
    <glyph glyph-name="T" unicode="T" horiz-adv-x="574" 
d="M236 0v637h-236v88h574v-88h-236v-637h-102z" />
    <glyph glyph-name="U" unicode="U" horiz-adv-x="731" 
d="M75 725h102v-441q0 -109 43.5 -159t143.5 -50q101 0 145.5 54.5t44.5 165.5v430h102v-422q0 -162 -68.5 -239t-223.5 -77q-153 0 -221 70.5t-68 237.5v430z" />
    <glyph glyph-name="V" unicode="V" horiz-adv-x="638" 
d="M11 725h112l201 -620l197 620h107l-246 -725h-122z" />
    <glyph glyph-name="W" unicode="W" horiz-adv-x="922" 
d="M522 725l143 -609l134 609h107l-181 -725h-124l-140 596l-137 -596h-124l-184 725h112l140 -609l134 609h120z" />
    <glyph glyph-name="X" unicode="X" horiz-adv-x="656" 
d="M0 0l269 373l-251 352h121l191 -268l193 268h115l-251 -348l269 -377h-120l-210 293l-211 -293h-115z" />
    <glyph glyph-name="Y" unicode="Y" horiz-adv-x="624" 
d="M0 725h112l198 -354l202 354h112l-266 -444v-281h-102v283z" />
    <glyph glyph-name="Z" unicode="Z" horiz-adv-x="633" 
d="M588 725v-88l-426 -549h442v-88h-563v88l427 549h-394v88h514z" />
    <glyph glyph-name="bracketleft" unicode="[" horiz-adv-x="316" 
d="M81 725h225v-77h-137v-746h137v-77h-225v900z" />
    <glyph glyph-name="backslash" unicode="\" horiz-adv-x="377" 
d="M91 725l286 -725h-92l-285 725h91z" />
    <glyph glyph-name="bracketright" unicode="]" horiz-adv-x="316" 
d="M10 725h225v-900h-225v77h137v746h-137v77z" />
    <glyph glyph-name="asciicircum" unicode="^" horiz-adv-x="441" 
d="M257 725l205 -387h-98l-146 273l-143 -273h-97l201 387h78z" />
    <glyph glyph-name="underscore" unicode="_" horiz-adv-x="458" 
d="M426 -87h-394v86h394v-86z" />
    <glyph glyph-name="grave" unicode="`" horiz-adv-x="251" 
d="M152 609l-130 116h116l91 -116h-77z" />
    <glyph glyph-name="a" unicode="a" horiz-adv-x="559" 
d="M411 225v34q-137 -13 -203.5 -38t-66.5 -77q0 -39 28 -62t76 -23q72 0 119 39t47 127zM225 -13q-79 0 -132 41.5t-53 113.5q0 46 24.5 79t76 54.5t112.5 33.5t151 22v13q0 131 -122 131q-56 0 -88 -28t-35 -79h-94q6 83 69.5 132t146.5 49q111 0 163 -54t51 -168l-1 -124
q-1 -131 14 -203h-92q-6 39 -7 74q-51 -87 -184 -87z" />
    <glyph glyph-name="b" unicode="b" horiz-adv-x="601" 
d="M159 267q0 -100 45.5 -151t111.5 -51q71 0 112.5 53.5t41.5 148.5t-41.5 148.5t-112.5 53.5q-66 0 -111.5 -51t-45.5 -151zM72 725h91v-272q54 94 176 94q97 0 163.5 -76t66.5 -204q0 -129 -66.5 -204.5t-163.5 -75.5q-122 0 -176 94v-81h-91v725z" />
    <glyph glyph-name="c" unicode="c" horiz-adv-x="557" 
d="M295 547q93 0 153.5 -57t71.5 -132h-92q-10 48 -48 78.5t-91 30.5q-65 0 -110 -51t-45 -147q0 -97 45 -149.5t110 -52.5q55 0 94 31.5t49 76.5h94q-15 -78 -81.5 -133t-158.5 -55q-115 0 -183 78t-68 203q0 122 71 200.5t189 78.5z" />
    <glyph glyph-name="d" unicode="d" horiz-adv-x="604" 
d="M441 453v272h91v-725h-91v81q-54 -94 -176 -94q-97 0 -163.5 75.5t-66.5 204.5q0 128 66.5 204t163.5 76q122 0 176 -94zM445 267q0 100 -45.5 151t-111.5 51q-71 0 -112.5 -53.5t-41.5 -148.5t41.5 -148.5t112.5 -53.5q66 0 111.5 51t45.5 151z" />
    <glyph glyph-name="e" unicode="e" horiz-adv-x="581" 
d="M547 239h-414q2 -82 51.5 -127t114.5 -45q108 0 147 89h94q-19 -73 -83 -121t-158 -48q-124 0 -194 79t-70 202q0 126 74 202.5t187 76.5q121 0 190 -88.5t61 -219.5zM296 469q-65 0 -110.5 -38t-51.5 -114h317q-2 61 -44 106.5t-111 45.5z" />
    <glyph glyph-name="f" unicode="f" horiz-adv-x="313" 
d="M95 538v39q0 87 27.5 117.5t117.5 30.5h47v-76h-45q-36 0 -46 -12.5t-10 -54.5v-44h101v-73h-101v-465h-91v465h-75v73h75z" />
    <glyph glyph-name="g" unicode="g" horiz-adv-x="597" 
d="M434 453v85h91v-466q0 -133 -51 -189q-62 -71 -186 -71q-93 0 -150.5 42t-70.5 123h97q19 -85 125 -85q73 0 110 40q18 20 26.5 44.5t8.5 74.5v51q-54 -93 -171 -93q-94 0 -161 72.5t-67 196.5t67 196.5t161 72.5q117 0 171 -94zM438 278q0 96 -43.5 143.5t-108.5 47.5
q-68 0 -110 -50.5t-42 -140.5q0 -91 42 -141.5t110 -50.5q66 0 109 47.5t43 144.5z" />
    <glyph glyph-name="h" unicode="h" horiz-adv-x="578" 
d="M163 725v-268q55 90 174 90q177 0 177 -207v-340h-91v313q0 74 -23.5 114.5t-94.5 40.5q-67 0 -104.5 -45t-37.5 -131v-292h-91v725h91z" />
    <glyph glyph-name="i" unicode="i" horiz-adv-x="235" 
d="M72 538h91v-538h-91v538zM72 725h91v-110h-91v110z" />
    <glyph glyph-name="j" unicode="j" horiz-adv-x="235" 
d="M72 -29v567h91v-565q0 -86 -25.5 -117t-101.5 -31h-46v76h26q35 0 45.5 13.5t10.5 56.5zM72 725h91v-110h-91v110z" />
    <glyph glyph-name="k" unicode="k" horiz-adv-x="505" 
d="M72 725h91v-429l217 242h112l-205 -223l233 -315h-111l-183 248l-63 -68v-180h-91v725z" />
    <glyph glyph-name="l" unicode="l" horiz-adv-x="235" 
d="M163 725v-725h-91v725h91z" />
    <glyph glyph-name="m" unicode="m" horiz-adv-x="899" 
d="M163 292v-292h-91v538h91v-81q55 90 162 90q117 0 155 -95q61 95 181 95q174 0 174 -207v-340h-91v313q0 73 -23.5 114t-91.5 41q-60 0 -95 -45.5t-35 -130.5v-292h-91v313q0 73 -23.5 114t-91.5 41q-60 0 -95 -45.5t-35 -130.5z" />
    <glyph glyph-name="n" unicode="n" horiz-adv-x="578" 
d="M163 538v-81q55 90 174 90q177 0 177 -207v-340h-91v313q0 74 -23.5 114.5t-94.5 40.5q-67 0 -104.5 -45t-37.5 -131v-292h-91v538h91z" />
    <glyph glyph-name="o" unicode="o" horiz-adv-x="590" 
d="M134 267q0 -101 46 -150.5t115 -49.5q68 0 114.5 51t46.5 149q0 101 -46 150.5t-115 49.5t-115 -48.5t-46 -151.5zM295 547q104 0 181 -72t77 -208t-77 -208t-181 -72t-181 72t-77 208t77 208t181 72z" />
    <glyph glyph-name="p" unicode="p" horiz-adv-x="604" 
d="M72 538h91v-85q54 94 176 94q97 0 163.5 -76t66.5 -204q0 -129 -66.5 -204.5t-163.5 -75.5q-122 0 -176 94v-256h-91v713zM159 267q0 -100 45.5 -151t111.5 -51q71 0 112.5 53.5t41.5 148.5t-41.5 148.5t-112.5 53.5q-66 0 -111.5 -51t-45.5 -151z" />
    <glyph glyph-name="q" unicode="q" horiz-adv-x="604" 
d="M441 453v85h91v-713h-91v256q-54 -94 -176 -94q-97 0 -163.5 75.5t-66.5 204.5q0 128 66.5 204t163.5 76q122 0 176 -94zM445 267q0 100 -45.5 151t-111.5 51q-71 0 -112.5 -53.5t-41.5 -148.5t41.5 -148.5t112.5 -53.5q66 0 111.5 51t45.5 151z" />
    <glyph glyph-name="r" unicode="r" horiz-adv-x="355" 
d="M340 540v-97q-25 4 -51 4q-64 0 -95 -38.5t-31 -126.5v-282h-91v538h89v-94q41 92 152 97q16 0 27 -1z" />
    <glyph glyph-name="s" unicode="s" horiz-adv-x="525" 
d="M475 381h-95q-21 89 -127 89q-45 0 -79 -17t-34 -51q0 -31 20.5 -47.5t61.5 -25.5l76 -15q85 -16 134.5 -52.5t49.5 -107.5q0 -78 -62 -122.5t-157 -44.5q-100 0 -161 55t-70 132h96q24 -110 137 -110q54 0 89.5 21.5t35.5 58.5q0 38 -29 58t-80 31l-80 16
q-68 15 -110.5 48t-42.5 101q0 69 61.5 109.5t153.5 40.5q87 0 143 -44.5t69 -122.5z" />
    <glyph glyph-name="t" unicode="t" horiz-adv-x="325" 
d="M98 538v135h91v-135h102v-73h-102v-319q0 -44 9.5 -57t46.5 -13h46v-76h-66q-78 0 -102.5 26t-24.5 109v330h-85v73h85z" />
    <glyph glyph-name="u" unicode="u" horiz-adv-x="568" 
d="M405 0v77q-55 -90 -169 -90q-172 0 -172 207v344h91v-317q0 -74 22.5 -114.5t90.5 -40.5q66 0 101.5 45t35.5 131v296h91v-538h-91z" />
    <glyph glyph-name="v" unicode="v" horiz-adv-x="487" 
d="M101 538l146 -412l146 412h94l-203 -538h-81l-203 538h101z" />
    <glyph glyph-name="w" unicode="w" horiz-adv-x="720" 
d="M206 140l107 398h94l107 -398l103 398h98l-155 -538h-83l-119 433l-115 -433h-83l-155 538h98z" />
    <glyph glyph-name="x" unicode="x" horiz-adv-x="520" 
d="M494 538l-183 -257l201 -281h-109l-146 205l-145 -205h-104l198 277l-186 261h109l131 -185l132 185h102z" />
    <glyph glyph-name="y" unicode="y" horiz-adv-x="466" 
d="M371 538h95l-192 -561q-22 -63 -40.5 -92.5t-52.5 -44.5t-94 -15h-47v76h37q51 0 73.5 15t39.5 73l4 11l-194 538h101l137 -415z" />
    <glyph glyph-name="z" unicode="z" horiz-adv-x="488" 
d="M33 0v79l311 380h-291v79h397v-79l-310 -380h316v-79h-423z" />
    <glyph glyph-name="braceleft" unicode="{" horiz-adv-x="290" 
d="M280 -175h-47q-90 0 -118 30.5t-28 117.5v163q0 52 -15 77.5t-61 25.5v73q46 0 61 25.5t15 77.5v162q0 87 28 117.5t118 30.5h47v-77h-45q-35 0 -45.5 -13.5t-10.5 -56.5v-165q0 -65 -20.5 -95.5t-63.5 -40.5v-3q43 -10 63.5 -40.5t20.5 -95.5v-166q0 -43 10.5 -56.5
t45.5 -13.5h45v-77z" />
    <glyph glyph-name="bar" unicode="|" horiz-adv-x="255" 
d="M86 725h83v-815h-83v815z" />
    <glyph glyph-name="braceright" unicode="}" horiz-adv-x="290" 
d="M10 -175v77h45q35 0 45.5 13.5t10.5 56.5v166q0 65 20.5 95.5t63.5 40.5v3q-43 10 -63.5 40.5t-20.5 95.5v165q0 43 -10.5 56.5t-45.5 13.5h-45v77h47q90 0 118 -30.5t28 -117.5v-162q0 -52 15 -77.5t61 -25.5v-73q-46 0 -61 -25.5t-15 -77.5v-163q0 -87 -28 -117.5
t-118 -30.5h-47z" />
    <glyph glyph-name="asciitilde" unicode="~" horiz-adv-x="678" 
d="M452 286q28 0 47 18.5t22 50.5h85q-5 -67 -46 -107.5t-108 -40.5q-43 0 -118.5 34t-107.5 34q-29 0 -48 -18t-21 -50h-85q4 67 45 107.5t109 40.5q52 0 126 -34.5t100 -34.5z" />
    <glyph glyph-name="uni00A0" unicode="&#xa0;" horiz-adv-x="237" 
 />
    <glyph glyph-name="exclamdown" unicode="&#xa1;" horiz-adv-x="245" 
d="M171 33v-208h-97v208l20 293h57zM180 423h-115v115h115v-115z" />
    <glyph glyph-name="cent" unicode="&#xa2;" horiz-adv-x="546" 
d="M259 628h46v-81q88 -4 143 -60t66 -129h-92q-9 45 -39.5 74t-77.5 34v-398q49 5 80 35t41 72h94q-12 -73 -71 -126t-144 -61v-85h-46v85q-105 8 -164.5 85t-59.5 195q0 114 59.5 189.5t164.5 87.5v83zM134 269q0 -88 34.5 -139t90.5 -61v395q-56 -9 -90.5 -59t-34.5 -136
z" />
    <glyph glyph-name="sterling" unicode="&#xa3;" horiz-adv-x="571" 
d="M298 661q-55 0 -97 -26.5t-42 -83.5q0 -25 9.5 -54.5t17.5 -46.5t27 -54h193v-65h-164q14 -42 14 -74q0 -97 -106 -161l1 -2q37 13 68 13q26 0 83.5 -19.5t94.5 -19.5q55 0 120 27l27 -79q-58 -33 -139 -33q-38 0 -103.5 20t-105.5 20q-76 0 -146 -40l-30 73q20 9 41 23
t45 37t39 56t15 70q0 43 -18 89h-121v65h91q-18 37 -25.5 53t-16 47t-8.5 59q0 92 71 137.5t169 45.5q114 0 179 -64.5t63 -169.5h-94q-4 157 -152 157z" />
    <glyph glyph-name="currency" unicode="&#xa4;" horiz-adv-x="636" 
d="M79 346q0 78 44 139l-69 70l49 49l68 -68q63 49 144 49q83 0 147 -51l71 70l49 -49l-72 -72q44 -64 44 -137q0 -76 -44 -137l72 -71l-49 -49l-71 70q-65 -49 -147 -49q-81 0 -143 48l-69 -69l-49 49l69 70q-44 61 -44 138zM162 346q0 -69 43 -115t109 -46q69 0 114.5 46
t45.5 115q0 70 -45.5 117.5t-114.5 47.5q-66 0 -109 -47.5t-43 -117.5z" />
    <glyph glyph-name="yen" unicode="&#xa5;" horiz-adv-x="603" 
d="M514 111h-171v-111h-92v111h-163v64h163v76h-163v64h138l-231 410h107l198 -375l202 375h106l-239 -410h145v-64h-171v-76h171v-64z" />
    <glyph glyph-name="brokenbar" unicode="&#xa6;" horiz-adv-x="227" 
d="M72 725h83v-305h-83v305zM72 215h83v-305h-83v305z" />
    <glyph glyph-name="section" unicode="&#xa7;" horiz-adv-x="580" 
d="M288 -109q49 0 78.5 19t29.5 54q0 32 -19.5 54t-76.5 54l-130 69q-133 72 -133 174q0 51 36.5 89t93.5 57q-81 53 -81 136q0 68 58 104.5t137 36.5q88 0 143.5 -43.5t66.5 -116.5h-95q-15 84 -119 84q-45 0 -71.5 -16.5t-26.5 -44.5q0 -27 18 -47t63 -44l137 -74
q74 -38 110.5 -77t36.5 -96q0 -53 -33.5 -95.5t-90.5 -66.5q69 -51 69 -123q0 -77 -58.5 -120t-144.5 -43q-94 0 -152.5 49.5t-65.5 136.5h94q18 -110 126 -110zM350 362l-111 59q-46 -14 -79 -40t-33 -60q0 -30 18 -53t61 -46l137 -74l10 -6q100 44 100 105
q0 34 -23.5 59.5t-79.5 55.5z" />
    <glyph glyph-name="dieresis" unicode="&#xa8;" horiz-adv-x="365" 
d="M22 626v99h91v-99h-91zM251 725h92v-99h-92v99z" />
    <glyph glyph-name="copyright" unicode="&#xa9;" horiz-adv-x="825" 
d="M38 361q0 165 108 271t267 106q158 0 266 -106t108 -271q0 -164 -108 -269t-266 -105q-159 0 -267 105t-108 269zM112 361q0 -136 86.5 -221.5t214.5 -85.5q130 0 215 85t85 222q0 138 -85 224t-215 86q-128 0 -214.5 -86.5t-86.5 -223.5zM412 227q81 0 101 75l76 -20
q-17 -52 -62.5 -85.5t-114.5 -33.5q-90 0 -139 55t-49 153q0 97 51 151t140 54q69 0 112.5 -35t58.5 -92l-75 -21q-10 41 -36.5 63t-62.5 22q-48 0 -77 -36t-29 -106t29 -107t77 -37z" />
    <glyph glyph-name="ordfeminine" unicode="&#xaa;" horiz-adv-x="345" 
d="M241 480q-26 -49 -101 -49q-52 0 -81.5 24t-29.5 64q0 29 15.5 49.5t46 32t63 17.5t77.5 9v13q0 58 -64 58q-23 0 -39.5 -13t-18.5 -39h-71q3 47 39.5 76t95.5 29q131 0 131 -129q-2 -46 -2 -89q2 -68 6 -95h-66q-1 19 -1 42zM150 486q81 0 81 77v12q-75 -9 -100.5 -19
t-25.5 -34q0 -17 13 -26.5t32 -9.5z" />
    <glyph glyph-name="guillemotleft" unicode="&#xab;" horiz-adv-x="514" 
d="M169 44l-159 229l159 228h98l-150 -228l150 -229h-98zM394 44l-159 229l159 228h98l-150 -228l150 -229h-98z" />
    <glyph glyph-name="logicalnot" unicode="&#xac;" horiz-adv-x="678" 
d="M488 344h-430v86h522v-332h-92v246z" />
    <glyph glyph-name="uni00AD" unicode="&#xad;" horiz-adv-x="405" 
d="M361 231h-318v86h318v-86z" />
    <glyph glyph-name="registered" unicode="&#xae;" horiz-adv-x="825" 
d="M38 361q0 165 108 271t267 106q158 0 266 -106t108 -271q0 -164 -108 -269t-266 -105q-159 0 -267 105t-108 269zM112 361q0 -136 86.5 -221.5t214.5 -85.5q130 0 215 85t85 222q0 138 -85 224t-215 86q-128 0 -214.5 -86.5t-86.5 -223.5zM506 176l-81 152h-18h-58v-152
h-82v399h122q96 0 142 -25.5t46 -98.5q0 -74 -72 -106l92 -169h-91zM495 450q0 34 -23.5 47t-69.5 13h-53v-119h58q88 0 88 59z" />
    <glyph glyph-name="macron" unicode="&#xaf;" horiz-adv-x="344" 
d="M322 635h-300v75h300v-75z" />
    <glyph glyph-name="degree" unicode="&#xb0;" horiz-adv-x="337" 
d="M22 591q0 61 43 104t103 43q62 0 105 -42.5t43 -104.5q0 -61 -43 -104t-105 -43q-60 0 -103 43t-43 104zM95 591q0 -33 20.5 -56t52.5 -23q33 0 54.5 23t21.5 56t-21.5 56t-54.5 23q-32 0 -52.5 -23t-20.5 -56z" />
    <glyph glyph-name="plusminus" unicode="&#xb1;" horiz-adv-x="678" 
d="M293 377v155h92v-155h215v-86h-215v-156h-92v156h-215v86h215zM600 0h-522v86h522v-86z" />
    <glyph glyph-name="twosuperior" unicode="&#xb2;" horiz-adv-x="348" 
d="M177 853q59 0 97 -29t38 -79q0 -58 -50.5 -116.5t-151.5 -127.5h211v-63h-299v59q114 90 164 143.5t50 99.5q0 29 -17 44t-45 15q-31 0 -51.5 -21t-19.5 -64h-73q-1 63 39 101t108 38z" />
    <glyph glyph-name="threesuperior" unicode="&#xb3;" horiz-adv-x="361" 
d="M178 486q35 0 57 18t22 49q0 68 -95 68h-24v59h20q90 0 90 61q0 28 -19.5 43t-48.5 15q-70 0 -81 -77h-70q5 61 46 96t110 35q56 0 96.5 -27.5t40.5 -81.5q0 -29 -15.5 -53t-41.5 -37q32 -14 49.5 -40.5t17.5 -58.5q0 -60 -44.5 -92t-110.5 -32q-67 0 -108 39t-45 97h70
q6 -36 26.5 -58.5t57.5 -22.5z" />
    <glyph glyph-name="acute" unicode="&#xb4;" horiz-adv-x="251" 
d="M229 725l-131 -116h-76l90 116h117z" />
    <glyph glyph-name="mu" unicode="&#xb5;" horiz-adv-x="574" 
d="M149 -175h-90q11 55 11 158v555h91v-316q0 -85 28 -120t88 -35q63 0 98 44.5t35 127.5v299h91v-538h-91v74q-23 -39 -57 -63t-72 -24q-77 0 -120 60v-56q0 -106 -12 -166z" />
    <glyph glyph-name="mu" unicode="&#x3bc;" horiz-adv-x="574" 
d="M149 -175h-90q11 55 11 158v555h91v-316q0 -85 28 -120t88 -35q63 0 98 44.5t35 127.5v299h91v-538h-91v74q-23 -39 -57 -63t-72 -24q-77 0 -120 60v-56q0 -106 -12 -166z" />
    <glyph glyph-name="paragraph" unicode="&#xb6;" horiz-adv-x="521" 
d="M0 537q0 89 61 138.5t180 49.5h208v-814h-76v744h-121v-744h-76v449q-74 9 -125 53.5t-51 123.5z" />
    <glyph glyph-name="periodcentered" unicode="&#xb7;" horiz-adv-x="245" 
d="M180 212h-115v115h115v-115z" />
    <glyph glyph-name="cedilla" unicode="&#xb8;" horiz-adv-x="245" 
d="M22 -176l16 40q30 -14 58 -14q61 0 61 32q0 30 -44 30q-24 0 -38 -9l-30 17l51 83h53l-32 -51q15 3 30 3q36 0 56 -18.5t20 -49.5q0 -37 -33 -59.5t-75 -22.5q-54 0 -93 19z" />
    <glyph glyph-name="onesuperior" unicode="&#xb9;" horiz-adv-x="232" 
d="M176 438h-74v308h-89v50q49 1 71.5 10t36.5 40h55v-408z" />
    <glyph glyph-name="ordmasculine" unicode="&#xba;" horiz-adv-x="355" 
d="M178 489q35 0 55 25t20 75q0 49 -20 75t-55 26q-33 0 -53.5 -26.5t-20.5 -74.5q0 -49 20.5 -74.5t53.5 -25.5zM178 431q-62 0 -105.5 40.5t-43.5 117.5t43 118t106 41t106 -41t43 -118t-43.5 -117.5t-105.5 -40.5z" />
    <glyph glyph-name="guillemotright" unicode="&#xbb;" horiz-adv-x="514" 
d="M279 273l-159 -229h-98l151 229l-151 228h98zM504 273l-159 -229h-98l151 229l-151 228h98z" />
    <glyph glyph-name="onequarter" unicode="&#xbc;" horiz-adv-x="810" 
d="M176 317h-74v308h-89v50q49 1 71.5 10t36.5 40h55v-408zM133 0h-101l500 725h101zM650 314l-122 -159h122v159zM794 155v-61h-70v-94h-74v94h-201v58l202 256h73v-253h70z" />
    <glyph glyph-name="onehalf" unicode="&#xbd;" horiz-adv-x="780" 
d="M176 317h-74v308h-89v50q49 1 71.5 10t36.5 40h55v-408zM133 0h-101l500 725h101zM610 415q59 0 97 -29t38 -79q0 -58 -50.5 -116.5t-151.5 -127.5h211v-63h-299v59q114 90 164 143.5t50 99.5q0 29 -17 44t-45 15q-31 0 -51.5 -21t-19.5 -64h-73q-1 63 39 101t108 38z
" />
    <glyph glyph-name="threequarters" unicode="&#xbe;" horiz-adv-x="939" 
d="M178 365q35 0 57 18t22 49q0 68 -95 68h-24v59h20q90 0 90 61q0 28 -19.5 43t-48.5 15q-70 0 -81 -77h-70q5 61 46 96t110 35q56 0 96.5 -27.5t40.5 -81.5q0 -29 -15.5 -53t-41.5 -37q32 -14 49.5 -40.5t17.5 -58.5q0 -60 -44.5 -92t-110.5 -32q-67 0 -108 39t-45 97h70
q6 -36 26.5 -58.5t57.5 -22.5zM262 0h-101l500 725h101zM779 314l-122 -159h122v159zM923 155v-61h-70v-94h-74v94h-201v58l202 256h73v-253h70z" />
    <glyph glyph-name="questiondown" unicode="&#xbf;" horiz-adv-x="499" 
d="M238 -189q-92 0 -158.5 45t-66.5 131q0 34 10.5 63t34 55t38.5 39.5t48 39.5q5 3 21 15t21 16t16 14.5t14.5 18.5t7.5 20.5t4 26.5v31h93v-34q0 -22 -6 -42t-11.5 -32.5t-23 -29t-23.5 -21.5t-30.5 -22.5t-28.5 -20.5q-31 -24 -45 -37t-29 -39.5t-15 -57.5
q0 -47 36.5 -73t97.5 -26q74 0 108.5 41.5t37.5 93.5h91q0 -96 -68.5 -155.5t-173.5 -59.5zM330 423h-115v115h115v-115z" />
    <glyph glyph-name="Agrave" unicode="&#xc0;" horiz-adv-x="660" 
d="M0 0l269 725h118l273 -725h-110l-57 157h-333l-56 -157h-104zM325 622l-134 -378h270zM285 773l-148 113h129l110 -113h-91z" />
    <glyph glyph-name="Aacute" unicode="&#xc1;" horiz-adv-x="660" 
d="M0 0l269 725h118l273 -725h-110l-57 157h-333l-56 -157h-104zM325 622l-134 -378h270zM524 886l-149 -113h-90l110 113h129z" />
    <glyph glyph-name="Acircumflex" unicode="&#xc2;" horiz-adv-x="660" 
d="M0 0l269 725h118l273 -725h-110l-57 157h-333l-56 -157h-104zM325 622l-134 -378h270zM373 886l132 -113h-107l-68 56l-68 -56h-107l135 113h83z" />
    <glyph glyph-name="Atilde" unicode="&#xc3;" horiz-adv-x="660" 
d="M0 0l269 725h118l273 -725h-110l-57 157h-333l-56 -157h-104zM325 622l-134 -378h270zM396 840q41 0 47 45h71q-11 -59 -42 -86t-74 -27q-33 0 -75 23.5t-61 23.5q-40 0 -45 -44h-71q9 56 40 84t75 28q32 0 73 -23.5t62 -23.5z" />
    <glyph glyph-name="Adieresis" unicode="&#xc4;" horiz-adv-x="660" 
d="M0 0l269 725h118l273 -725h-110l-57 157h-333l-56 -157h-104zM325 622l-134 -378h270zM170 879h91v-99h-91v99zM399 879h92v-99h-92v99z" />
    <glyph glyph-name="Aring" unicode="&#xc5;" horiz-adv-x="660" 
d="M0 0l269 725h118l273 -725h-110l-57 157h-333l-56 -157h-104zM325 622l-134 -378h270zM330 935q39 0 65 -23.5t26 -61.5q0 -37 -26 -61t-65 -24q-38 0 -64 24t-26 61t26 61t64 24zM330 893q-18 0 -30.5 -12.5t-12.5 -30.5t12.5 -30t30.5 -12t30.5 12t12.5 30t-12.5 30.5
t-30.5 12.5z" />
    <glyph glyph-name="AE" unicode="&#xc6;" horiz-adv-x="1050" 
d="M528 725h492v-88h-389v-220h366v-88h-366v-241h389v-88h-492v155h-305l-111 -155h-112zM528 579l-241 -335h241v335z" />
    <glyph glyph-name="Ccedilla" unicode="&#xc7;" horiz-adv-x="726" 
d="M595 231h99q-23 -117 -108 -180.5t-206 -63.5q-153 0 -241 104.5t-88 272.5t92 271t245 103q114 0 196 -64.5t106 -179.5h-99q-16 71 -70.5 114.5t-137.5 43.5q-100 0 -164 -76t-64 -212t64 -213.5t167 -77.5q84 0 137.5 42.5t71.5 115.5zM272 -176l16 40q30 -14 58 -14
q61 0 61 32q0 30 -44 30q-24 0 -38 -9l-30 17l51 83h53l-32 -51q15 3 30 3q36 0 56 -18.5t20 -49.5q0 -37 -33 -59.5t-75 -22.5q-54 0 -93 19z" />
    <glyph glyph-name="Egrave" unicode="&#xc8;" horiz-adv-x="613" 
d="M86 0v725h492v-88h-390v-220h367v-88h-367v-241h390v-88h-492zM307 773l-148 113h129l110 -113h-91z" />
    <glyph glyph-name="Eacute" unicode="&#xc9;" horiz-adv-x="613" 
d="M86 0v725h492v-88h-390v-220h367v-88h-367v-241h390v-88h-492zM526 886l-149 -113h-90l110 113h129z" />
    <glyph glyph-name="Ecircumflex" unicode="&#xca;" horiz-adv-x="613" 
d="M86 0v725h492v-88h-390v-220h367v-88h-367v-241h390v-88h-492zM382 886l132 -113h-107l-68 56l-68 -56h-107l135 113h83z" />
    <glyph glyph-name="Edieresis" unicode="&#xcb;" horiz-adv-x="613" 
d="M86 0v725h492v-88h-390v-220h367v-88h-367v-241h390v-88h-492zM172 879h91v-99h-91v99zM401 879h92v-99h-92v99z" />
    <glyph glyph-name="Igrave" unicode="&#xcc;" horiz-adv-x="274" 
d="M188 725v-725h-102v725h102zM93 773l-148 113h129l110 -113h-91z" />
    <glyph glyph-name="Iacute" unicode="&#xcd;" horiz-adv-x="274" 
d="M188 725v-725h-102v725h102zM331 886l-149 -113h-90l110 113h129z" />
    <glyph glyph-name="Icircumflex" unicode="&#xce;" horiz-adv-x="274" 
d="M188 725v-725h-102v725h102zM181 886l132 -113h-107l-68 56l-68 -56h-107l135 113h83z" />
    <glyph glyph-name="Idieresis" unicode="&#xcf;" horiz-adv-x="274" 
d="M188 725v-725h-102v725h102zM-22 879h91v-99h-91v99zM207 879h92v-99h-92v99z" />
    <glyph glyph-name="Eth" unicode="&#xd0;" horiz-adv-x="729" 
d="M86 725h198q90 0 159 -18.5t123.5 -59t83.5 -112.5t29 -172q0 -195 -104.5 -279t-290.5 -84h-198v323h-64v90h64v312zM575 363q0 71 -17 123t-43 81t-67 45.5t-78.5 21.5t-88.5 5h-93v-226h159v-90h-159v-237h93q51 0 88.5 5t78.5 21.5t67 46t43 81t17 123.5z" />
    <glyph glyph-name="Ntilde" unicode="&#xd1;" horiz-adv-x="755" 
d="M669 0h-149l-332 619v-619h-102v725h150l331 -617v617h102v-725zM463 840q41 0 47 45h71q-11 -59 -42 -86t-74 -27q-33 0 -75 23.5t-61 23.5q-40 0 -45 -44h-71q9 56 40 84t75 28q32 0 73 -23.5t62 -23.5z" />
    <glyph glyph-name="Ograve" unicode="&#xd2;" horiz-adv-x="782" 
d="M155 363q0 -136 66.5 -213t169.5 -77t169.5 77t66.5 213t-66.5 212.5t-169.5 76.5t-169.5 -76.5t-66.5 -212.5zM731 363q0 -166 -92.5 -271t-247.5 -105t-247.5 105t-92.5 271t92.5 270.5t247.5 104.5t247.5 -104.5t92.5 -270.5zM346 773l-148 113h129l110 -113h-91z" />
    <glyph glyph-name="Oacute" unicode="&#xd3;" horiz-adv-x="782" 
d="M155 363q0 -136 66.5 -213t169.5 -77t169.5 77t66.5 213t-66.5 212.5t-169.5 76.5t-169.5 -76.5t-66.5 -212.5zM731 363q0 -166 -92.5 -271t-247.5 -105t-247.5 105t-92.5 271t92.5 270.5t247.5 104.5t247.5 -104.5t92.5 -270.5zM585 886l-149 -113h-90l110 113h129z" />
    <glyph glyph-name="Ocircumflex" unicode="&#xd4;" horiz-adv-x="782" 
d="M155 363q0 -136 66.5 -213t169.5 -77t169.5 77t66.5 213t-66.5 212.5t-169.5 76.5t-169.5 -76.5t-66.5 -212.5zM731 363q0 -166 -92.5 -271t-247.5 -105t-247.5 105t-92.5 271t92.5 270.5t247.5 104.5t247.5 -104.5t92.5 -270.5zM434 886l132 -113h-107l-68 56l-68 -56
h-107l135 113h83z" />
    <glyph glyph-name="Otilde" unicode="&#xd5;" horiz-adv-x="782" 
d="M155 363q0 -136 66.5 -213t169.5 -77t169.5 77t66.5 213t-66.5 212.5t-169.5 76.5t-169.5 -76.5t-66.5 -212.5zM731 363q0 -166 -92.5 -271t-247.5 -105t-247.5 105t-92.5 271t92.5 270.5t247.5 104.5t247.5 -104.5t92.5 -270.5zM457 840q41 0 47 45h71q-11 -59 -42 -86
t-74 -27q-33 0 -75 23.5t-61 23.5q-40 0 -45 -44h-71q9 56 40 84t75 28q32 0 73 -23.5t62 -23.5z" />
    <glyph glyph-name="Odieresis" unicode="&#xd6;" horiz-adv-x="782" 
d="M155 363q0 -136 66.5 -213t169.5 -77t169.5 77t66.5 213t-66.5 212.5t-169.5 76.5t-169.5 -76.5t-66.5 -212.5zM731 363q0 -166 -92.5 -271t-247.5 -105t-247.5 105t-92.5 271t92.5 270.5t247.5 104.5t247.5 -104.5t92.5 -270.5zM231 879h91v-99h-91v99zM460 879h92v-99
h-92v99z" />
    <glyph glyph-name="multiply" unicode="&#xd7;" horiz-adv-x="678" 
d="M574 95l-64 -65l-174 173l-167 -166l-65 64l168 167l-168 169l65 64l167 -167l168 166l65 -64l-168 -168z" />
    <glyph glyph-name="Oslash" unicode="&#xd8;" horiz-adv-x="781" 
d="M731 363q0 -166 -92.5 -271t-247.5 -105q-134 0 -220 78l-67 -79l-40 36l69 81q-82 104 -82 260q0 166 92.5 270.5t247.5 104.5q129 0 219 -77l58 69l40 -35l-61 -72q84 -99 84 -260zM627 363q0 108 -46 183l-348 -409q61 -64 158 -64q103 0 169.5 77t66.5 213zM155 363
q0 -108 44 -182l349 408q-65 63 -157 63q-103 0 -169.5 -76.5t-66.5 -212.5z" />
    <glyph glyph-name="Ugrave" unicode="&#xd9;" horiz-adv-x="731" 
d="M75 725h102v-441q0 -109 43.5 -159t143.5 -50q101 0 145.5 54.5t44.5 165.5v430h102v-422q0 -162 -68.5 -239t-223.5 -77q-153 0 -221 70.5t-68 237.5v430zM320 773l-148 113h129l110 -113h-91z" />
    <glyph glyph-name="Uacute" unicode="&#xda;" horiz-adv-x="731" 
d="M75 725h102v-441q0 -109 43.5 -159t143.5 -50q101 0 145.5 54.5t44.5 165.5v430h102v-422q0 -162 -68.5 -239t-223.5 -77q-153 0 -221 70.5t-68 237.5v430zM549 886l-149 -113h-90l110 113h129z" />
    <glyph glyph-name="Ucircumflex" unicode="&#xdb;" horiz-adv-x="731" 
d="M75 725h102v-441q0 -109 43.5 -159t143.5 -50q101 0 145.5 54.5t44.5 165.5v430h102v-422q0 -162 -68.5 -239t-223.5 -77q-153 0 -221 70.5t-68 237.5v430zM408 886l132 -113h-107l-68 56l-68 -56h-107l135 113h83z" />
    <glyph glyph-name="Udieresis" unicode="&#xdc;" horiz-adv-x="731" 
d="M75 725h102v-441q0 -109 43.5 -159t143.5 -50q101 0 145.5 54.5t44.5 165.5v430h102v-422q0 -162 -68.5 -239t-223.5 -77q-153 0 -221 70.5t-68 237.5v430zM205 879h91v-99h-91v99zM434 879h92v-99h-92v99z" />
    <glyph glyph-name="Yacute" unicode="&#xdd;" horiz-adv-x="624" 
d="M0 725h112l198 -354l202 354h112l-266 -444v-281h-102v283zM486 886l-149 -113h-90l110 113h129z" />
    <glyph glyph-name="Thorn" unicode="&#xde;" horiz-adv-x="620" 
d="M188 599h109q145 0 223 -49.5t78 -175.5q0 -65 -21.5 -110t-63.5 -69.5t-94 -34.5t-122 -10h-109v-150h-102v725h102v-126zM304 509h-116v-269h116q36 0 61.5 2.5t51.5 11t41.5 23t25.5 39t10 58.5q0 43 -13.5 71t-41.5 41.5t-58.5 18t-76.5 4.5z" />
    <glyph glyph-name="germandbls" unicode="&#xdf;" horiz-adv-x="633" 
d="M163 0h-91v491q0 122 55 177q64 69 201 69q99 0 162.5 -47t63.5 -125q0 -113 -109 -157q151 -37 151 -194q0 -61 -22 -106.5t-61 -71t-84.5 -37.5t-99.5 -12t-109 11l20 86q45 -15 93 -15q72 0 118.5 34t46.5 110q0 145 -203 145h-3v83h2q81 0 124.5 29.5t43.5 83.5
q0 49 -37.5 78.5t-97.5 29.5q-97 0 -133 -49q-31 -38 -31 -122v-491z" />
    <glyph glyph-name="agrave" unicode="&#xe0;" horiz-adv-x="559" 
d="M411 225v34q-137 -13 -203.5 -38t-66.5 -77q0 -39 28 -62t76 -23q72 0 119 39t47 127zM225 -13q-79 0 -132 41.5t-53 113.5q0 46 24.5 79t76 54.5t112.5 33.5t151 22v13q0 131 -122 131q-56 0 -88 -28t-35 -79h-94q6 83 69.5 132t146.5 49q111 0 163 -54t51 -168l-1 -124
q-1 -131 14 -203h-92q-6 39 -7 74q-51 -87 -184 -87zM246 609l-130 116h116l91 -116h-77z" />
    <glyph glyph-name="aacute" unicode="&#xe1;" horiz-adv-x="559" 
d="M411 225v34q-137 -13 -203.5 -38t-66.5 -77q0 -39 28 -62t76 -23q72 0 119 39t47 127zM225 -13q-79 0 -132 41.5t-53 113.5q0 46 24.5 79t76 54.5t112.5 33.5t151 22v13q0 131 -122 131q-56 0 -88 -28t-35 -79h-94q6 83 69.5 132t146.5 49q111 0 163 -54t51 -168l-1 -124
q-1 -131 14 -203h-92q-6 39 -7 74q-51 -87 -184 -87zM443 725l-131 -116h-76l90 116h117z" />
    <glyph glyph-name="acircumflex" unicode="&#xe2;" horiz-adv-x="559" 
d="M411 225v34q-137 -13 -203.5 -38t-66.5 -77q0 -39 28 -62t76 -23q72 0 119 39t47 127zM225 -13q-79 0 -132 41.5t-53 113.5q0 46 24.5 79t76 54.5t112.5 33.5t151 22v13q0 131 -122 131q-56 0 -88 -28t-35 -79h-94q6 83 69.5 132t146.5 49q111 0 163 -54t51 -168l-1 -124
q-1 -131 14 -203h-92q-6 39 -7 74q-51 -87 -184 -87zM330 725l129 -116h-96l-79 54l-79 -54h-96l132 116h89z" />
    <glyph glyph-name="atilde" unicode="&#xe3;" horiz-adv-x="559" 
d="M411 225v34q-137 -13 -203.5 -38t-66.5 -77q0 -39 28 -62t76 -23q72 0 119 39t47 127zM225 -13q-79 0 -132 41.5t-53 113.5q0 46 24.5 79t76 54.5t112.5 33.5t151 22v13q0 131 -122 131q-56 0 -88 -28t-35 -79h-94q6 83 69.5 132t146.5 49q111 0 163 -54t51 -168l-1 -124
q-1 -131 14 -203h-92q-6 39 -7 74q-51 -87 -184 -87zM340 680q41 0 47 45h71q-11 -59 -42 -86t-74 -27q-33 0 -75 24t-61 24q-40 0 -45 -44h-71q9 56 40 84t75 28q32 0 73 -24t62 -24z" />
    <glyph glyph-name="adieresis" unicode="&#xe4;" horiz-adv-x="559" 
d="M411 225v34q-137 -13 -203.5 -38t-66.5 -77q0 -39 28 -62t76 -23q72 0 119 39t47 127zM225 -13q-79 0 -132 41.5t-53 113.5q0 46 24.5 79t76 54.5t112.5 33.5t151 22v13q0 131 -122 131q-56 0 -88 -28t-35 -79h-94q6 83 69.5 132t146.5 49q111 0 163 -54t51 -168l-1 -124
q-1 -131 14 -203h-92q-6 39 -7 74q-51 -87 -184 -87zM114 626v99h91v-99h-91zM343 725h92v-99h-92v99z" />
    <glyph glyph-name="aring" unicode="&#xe5;" horiz-adv-x="559" 
d="M411 225v34q-137 -13 -203.5 -38t-66.5 -77q0 -39 28 -62t76 -23q72 0 119 39t47 127zM225 -13q-79 0 -132 41.5t-53 113.5q0 46 24.5 79t76 54.5t112.5 33.5t151 22v13q0 131 -122 131q-56 0 -88 -28t-35 -79h-94q6 83 69.5 132t146.5 49q111 0 163 -54t51 -168l-1 -124
q-1 -131 14 -203h-92q-6 39 -7 74q-51 -87 -184 -87zM284 770q39 0 65 -23.5t26 -61.5q0 -37 -26 -61t-65 -24q-38 0 -64 24t-26 61t26 61t64 24zM284 728q-18 0 -30.5 -12.5t-12.5 -30.5t12.5 -30t30.5 -12t30.5 12t12.5 30t-12.5 30.5t-30.5 12.5z" />
    <glyph glyph-name="ae" unicode="&#xe6;" horiz-adv-x="950" 
d="M225 -13q-79 0 -132 41.5t-53 113.5q0 46 24.5 79t76 54.5t112.5 33.5t151 22v13q0 131 -122 131q-56 0 -88 -28t-35 -79h-94q6 83 69.5 132t146.5 49q143 0 189 -93q72 91 195 91q121 0 190 -88.5t61 -219.5h-414q2 -82 51.5 -127t114.5 -45q108 0 147 89h94
q-19 -73 -83 -121t-158 -48q-145 0 -215 112q-65 -112 -228 -112zM411 225v31v3q-137 -13 -203.5 -38t-66.5 -77q0 -39 28 -62t76 -23q72 0 119 39t47 127zM665 469q-65 0 -110.5 -38t-51.5 -114h317q-2 61 -44 106.5t-111 45.5z" />
    <glyph glyph-name="ccedilla" unicode="&#xe7;" horiz-adv-x="557" 
d="M295 547q93 0 153.5 -57t71.5 -132h-92q-10 48 -48 78.5t-91 30.5q-65 0 -110 -51t-45 -147q0 -97 45 -149.5t110 -52.5q55 0 94 31.5t49 76.5h94q-15 -78 -81.5 -133t-158.5 -55q-115 0 -183 78t-68 203q0 122 71 200.5t189 78.5zM171 -176l16 40q30 -14 58 -14
q61 0 61 32q0 30 -44 30q-24 0 -38 -9l-30 17l51 83h53l-32 -51q15 3 30 3q36 0 56 -18.5t20 -49.5q0 -37 -33 -59.5t-75 -22.5q-54 0 -93 19z" />
    <glyph glyph-name="egrave" unicode="&#xe8;" horiz-adv-x="581" 
d="M547 239h-414q2 -82 51.5 -127t114.5 -45q108 0 147 89h94q-19 -73 -83 -121t-158 -48q-124 0 -194 79t-70 202q0 126 74 202.5t187 76.5q121 0 190 -88.5t61 -219.5zM296 469q-65 0 -110.5 -38t-51.5 -114h317q-2 61 -44 106.5t-111 45.5zM250 609l-130 116h116l91 -116
h-77z" />
    <glyph glyph-name="eacute" unicode="&#xe9;" horiz-adv-x="581" 
d="M547 239h-414q2 -82 51.5 -127t114.5 -45q108 0 147 89h94q-19 -73 -83 -121t-158 -48q-124 0 -194 79t-70 202q0 126 74 202.5t187 76.5q121 0 190 -88.5t61 -219.5zM296 469q-65 0 -110.5 -38t-51.5 -114h317q-2 61 -44 106.5t-111 45.5zM457 725l-131 -116h-76l90 116
h117z" />
    <glyph glyph-name="ecircumflex" unicode="&#xea;" horiz-adv-x="581" 
d="M547 239h-414q2 -82 51.5 -127t114.5 -45q108 0 147 89h94q-19 -73 -83 -121t-158 -48q-124 0 -194 79t-70 202q0 126 74 202.5t187 76.5q121 0 190 -88.5t61 -219.5zM296 469q-65 0 -110.5 -38t-51.5 -114h317q-2 61 -44 106.5t-111 45.5zM334 725l129 -116h-96l-79 54
l-79 -54h-96l132 116h89z" />
    <glyph glyph-name="edieresis" unicode="&#xeb;" horiz-adv-x="581" 
d="M547 239h-414q2 -82 51.5 -127t114.5 -45q108 0 147 89h94q-19 -73 -83 -121t-158 -48q-124 0 -194 79t-70 202q0 126 74 202.5t187 76.5q121 0 190 -88.5t61 -219.5zM296 469q-65 0 -110.5 -38t-51.5 -114h317q-2 61 -44 106.5t-111 45.5zM128 626v99h91v-99h-91z
M357 725h92v-99h-92v99z" />
    <glyph glyph-name="igrave" unicode="&#xec;" horiz-adv-x="235" 
d="M72 538h91v-538h-91v538zM80 609l-130 116h116l91 -116h-77z" />
    <glyph glyph-name="iacute" unicode="&#xed;" horiz-adv-x="235" 
d="M72 538h91v-538h-91v538zM286 725l-131 -116h-76l90 116h117z" />
    <glyph glyph-name="icircumflex" unicode="&#xee;" horiz-adv-x="235" 
d="M72 538h91v-538h-91v538zM164 725l129 -116h-96l-79 54l-79 -54h-96l132 116h89z" />
    <glyph glyph-name="idieresis" unicode="&#xef;" horiz-adv-x="235" 
d="M72 538h91v-538h-91v538zM-42 626v99h91v-99h-91zM187 725h92v-99h-92v99z" />
    <glyph glyph-name="eth" unicode="&#xf0;" horiz-adv-x="573" 
d="M321 705l70 43l46 -26l-76 -47q170 -140 170 -359q0 -160 -68.5 -244.5t-183.5 -84.5q-113 0 -178.5 75.5t-65.5 205.5q0 127 65 203t167 76q96 0 154 -79l1 1q-44 96 -137 160l-74 -45l-45 24l78 48q-35 19 -79 40l66 60q47 -22 90 -51zM280 65q68 0 110 52t42 151
q0 98 -42.5 149.5t-109.5 51.5q-71 0 -108.5 -54t-37.5 -147q0 -95 37.5 -149t108.5 -54z" />
    <glyph glyph-name="ntilde" unicode="&#xf1;" horiz-adv-x="578" 
d="M163 538v-81q55 90 174 90q177 0 177 -207v-340h-91v313q0 74 -23.5 114.5t-94.5 40.5q-67 0 -104.5 -45t-37.5 -131v-292h-91v538h91zM369 680q41 0 47 45h71q-11 -59 -42 -86t-74 -27q-33 0 -75 24t-61 24q-40 0 -45 -44h-71q9 56 40 84t75 28q32 0 73 -24t62 -24z" />
    <glyph glyph-name="ograve" unicode="&#xf2;" horiz-adv-x="590" 
d="M134 267q0 -101 46 -150.5t115 -49.5q68 0 114.5 51t46.5 149q0 101 -46 150.5t-115 49.5t-115 -48.5t-46 -151.5zM295 547q104 0 181 -72t77 -208t-77 -208t-181 -72t-181 72t-77 208t77 208t181 72zM254 609l-130 116h116l91 -116h-77z" />
    <glyph glyph-name="oacute" unicode="&#xf3;" horiz-adv-x="590" 
d="M134 267q0 -101 46 -150.5t115 -49.5q68 0 114.5 51t46.5 149q0 101 -46 150.5t-115 49.5t-115 -48.5t-46 -151.5zM295 547q104 0 181 -72t77 -208t-77 -208t-181 -72t-181 72t-77 208t77 208t181 72zM461 725l-131 -116h-76l90 116h117z" />
    <glyph glyph-name="ocircumflex" unicode="&#xf4;" horiz-adv-x="590" 
d="M134 267q0 -101 46 -150.5t115 -49.5q68 0 114.5 51t46.5 149q0 101 -46 150.5t-115 49.5t-115 -48.5t-46 -151.5zM295 547q104 0 181 -72t77 -208t-77 -208t-181 -72t-181 72t-77 208t77 208t181 72zM338 725l129 -116h-96l-79 54l-79 -54h-96l132 116h89z" />
    <glyph glyph-name="otilde" unicode="&#xf5;" horiz-adv-x="590" 
d="M134 267q0 -101 46 -150.5t115 -49.5q68 0 114.5 51t46.5 149q0 101 -46 150.5t-115 49.5t-115 -48.5t-46 -151.5zM295 547q104 0 181 -72t77 -208t-77 -208t-181 -72t-181 72t-77 208t77 208t181 72zM358 680q41 0 47 45h71q-11 -59 -42 -86t-74 -27q-33 0 -75 24
t-61 24q-40 0 -45 -44h-71q9 56 40 84t75 28q32 0 73 -24t62 -24z" />
    <glyph glyph-name="odieresis" unicode="&#xf6;" horiz-adv-x="590" 
d="M134 267q0 -101 46 -150.5t115 -49.5q68 0 114.5 51t46.5 149q0 101 -46 150.5t-115 49.5t-115 -48.5t-46 -151.5zM295 547q104 0 181 -72t77 -208t-77 -208t-181 -72t-181 72t-77 208t77 208t181 72zM132 626v99h91v-99h-91zM361 725h92v-99h-92v99z" />
    <glyph glyph-name="divide" unicode="&#xf7;" horiz-adv-x="678" 
d="M284 32v115h115v-115h-115zM284 380v115h115v-115h-115zM600 215h-522v86h522v-86z" />
    <glyph glyph-name="oslash" unicode="&#xf8;" horiz-adv-x="590" 
d="M295 547q90 0 159 -53l38 43l41 -35l-40 -46q60 -75 60 -189q0 -136 -77 -208t-181 -72q-93 0 -163 55l-48 -55l-39 36l50 57q-58 72 -58 187q0 136 77 208t181 72zM456 267q0 66 -25 118l-242 -278q44 -40 106 -40q68 0 114.5 51t46.5 149zM134 267q0 -71 23 -115
l241 276q-42 39 -103 39q-69 0 -115 -48.5t-46 -151.5z" />
    <glyph glyph-name="ugrave" unicode="&#xf9;" horiz-adv-x="568" 
d="M405 0v77q-55 -90 -169 -90q-172 0 -172 207v344h91v-317q0 -74 22.5 -114.5t90.5 -40.5q66 0 101.5 45t35.5 131v296h91v-538h-91zM265 609l-130 116h116l91 -116h-77z" />
    <glyph glyph-name="uacute" unicode="&#xfa;" horiz-adv-x="568" 
d="M405 0v77q-55 -90 -169 -90q-172 0 -172 207v344h91v-317q0 -74 22.5 -114.5t90.5 -40.5q66 0 101.5 45t35.5 131v296h91v-538h-91zM452 725l-131 -116h-76l90 116h117z" />
    <glyph glyph-name="ucircumflex" unicode="&#xfb;" horiz-adv-x="568" 
d="M405 0v77q-55 -90 -169 -90q-172 0 -172 207v344h91v-317q0 -74 22.5 -114.5t90.5 -40.5q66 0 101.5 45t35.5 131v296h91v-538h-91zM329 725l129 -116h-96l-79 54l-79 -54h-96l132 116h89z" />
    <glyph glyph-name="udieresis" unicode="&#xfc;" horiz-adv-x="568" 
d="M405 0v77q-55 -90 -169 -90q-172 0 -172 207v344h91v-317q0 -74 22.5 -114.5t90.5 -40.5q66 0 101.5 45t35.5 131v296h91v-538h-91zM123 626v99h91v-99h-91zM352 725h92v-99h-92v99z" />
    <glyph glyph-name="yacute" unicode="&#xfd;" horiz-adv-x="466" 
d="M371 538h95l-192 -561q-22 -63 -40.5 -92.5t-52.5 -44.5t-94 -15h-47v76h37q51 0 73.5 15t39.5 73l4 11l-194 538h101l137 -415zM399 725l-131 -116h-76l90 116h117z" />
    <glyph glyph-name="thorn" unicode="&#xfe;" horiz-adv-x="601" 
d="M163 725v-272q54 94 176 94q96 0 162 -76t66 -204q0 -129 -66 -204.5t-162 -75.5q-122 0 -176 94v-256h-91v900h91zM159 267q0 -100 45.5 -151t111.5 -51q71 0 112.5 53.5t41.5 148.5t-41.5 148.5t-112.5 53.5q-66 0 -111.5 -51t-45.5 -151z" />
    <glyph glyph-name="ydieresis" unicode="&#xff;" horiz-adv-x="466" 
d="M371 538h95l-192 -561q-22 -63 -40.5 -92.5t-52.5 -44.5t-94 -15h-47v76h37q51 0 73.5 15t39.5 73l4 11l-194 538h101l137 -415zM73 626v99h91v-99h-91zM302 725h92v-99h-92v99z" />
    <glyph glyph-name="Amacron" unicode="&#x100;" horiz-adv-x="660" 
d="M0 0l269 725h118l273 -725h-110l-57 157h-333l-56 -157h-104zM325 622l-134 -378h270zM480 791h-300v75h300v-75z" />
    <glyph glyph-name="amacron" unicode="&#x101;" horiz-adv-x="559" 
d="M411 225v34q-137 -13 -203.5 -38t-66.5 -77q0 -39 28 -62t76 -23q72 0 119 39t47 127zM225 -13q-79 0 -132 41.5t-53 113.5q0 46 24.5 79t76 54.5t112.5 33.5t151 22v13q0 131 -122 131q-56 0 -88 -28t-35 -79h-94q6 83 69.5 132t146.5 49q111 0 163 -54t51 -168l-1 -124
q-1 -131 14 -203h-92q-6 39 -7 74q-51 -87 -184 -87zM434 635h-300v75h300v-75z" />
    <glyph glyph-name="Abreve" unicode="&#x102;" horiz-adv-x="660" 
d="M0 0l269 725h118l273 -725h-110l-57 157h-333l-56 -157h-104zM325 622l-134 -378h270zM411 886h77q-6 -55 -45.5 -87t-113.5 -32q-140 0 -156 119h77q9 -58 80 -58t81 58z" />
    <glyph glyph-name="abreve" unicode="&#x103;" horiz-adv-x="559" 
d="M411 225v34q-137 -13 -203.5 -38t-66.5 -77q0 -39 28 -62t76 -23q72 0 119 39t47 127zM225 -13q-79 0 -132 41.5t-53 113.5q0 46 24.5 79t76 54.5t112.5 33.5t151 22v13q0 131 -122 131q-56 0 -88 -28t-35 -79h-94q6 83 69.5 132t146.5 49q111 0 163 -54t51 -168l-1 -124
q-1 -131 14 -203h-92q-6 39 -7 74q-51 -87 -184 -87zM372 725h71q-16 -121 -160 -121q-76 0 -114.5 35t-42.5 86h71q8 -61 87 -61q80 0 88 61z" />
    <glyph glyph-name="Aogonek" unicode="&#x104;" horiz-adv-x="660" 
d="M0 0l269 725h118l273 -725q-88 -43 -88 -80q0 -23 13.5 -34t33.5 -11q21 0 41 9v-61q-27 -11 -60 -11q-46 0 -78.5 23t-32.5 72q0 48 61 93l-57 157h-333l-56 -157h-104zM325 622l-134 -378h270z" />
    <glyph glyph-name="aogonek" unicode="&#x105;" horiz-adv-x="559" 
d="M411 225v34q-137 -13 -203.5 -38t-66.5 -77q0 -39 28 -62t76 -23q72 0 119 39t47 127zM416 0q-6 39 -7 74q-51 -87 -184 -87q-79 0 -132 41.5t-53 113.5q0 46 24.5 79t76 54.5t112.5 33.5t151 22v13q0 131 -122 131q-56 0 -88 -28t-35 -79h-94q6 83 69.5 132t146.5 49
q111 0 163 -54t51 -168l-1 -124q-1 -131 14 -203q-97 -40 -97 -84q0 -40 55 -40q20 0 42 6v-61q-27 -9 -64 -9q-48 0 -82 21t-34 70q0 59 88 97z" />
    <glyph glyph-name="Cacute" unicode="&#x106;" horiz-adv-x="726" 
d="M595 231h99q-23 -117 -108 -180.5t-206 -63.5q-153 0 -241 104.5t-88 272.5t92 271t245 103q114 0 196 -64.5t106 -179.5h-99q-16 71 -70.5 114.5t-137.5 43.5q-100 0 -164 -76t-64 -212t64 -213.5t167 -77.5q84 0 137.5 42.5t71.5 115.5zM566 886l-149 -113h-90l110 113
h129z" />
    <glyph glyph-name="cacute" unicode="&#x107;" horiz-adv-x="557" 
d="M295 547q93 0 153.5 -57t71.5 -132h-92q-10 48 -48 78.5t-91 30.5q-65 0 -110 -51t-45 -147q0 -97 45 -149.5t110 -52.5q55 0 94 31.5t49 76.5h94q-15 -78 -81.5 -133t-158.5 -55q-115 0 -183 78t-68 203q0 122 71 200.5t189 78.5zM446 725l-131 -116h-76l90 116h117z
" />
    <glyph glyph-name="Ccircumflex" unicode="&#x108;" horiz-adv-x="726" 
d="M595 231h99q-23 -117 -108 -180.5t-206 -63.5q-153 0 -241 104.5t-88 272.5t92 271t245 103q114 0 196 -64.5t106 -179.5h-99q-16 71 -70.5 114.5t-137.5 43.5q-100 0 -164 -76t-64 -212t64 -213.5t167 -77.5q84 0 137.5 42.5t71.5 115.5zM430 886l132 -113h-107l-68 56
l-68 -56h-107l135 113h83z" />
    <glyph glyph-name="ccircumflex" unicode="&#x109;" horiz-adv-x="557" 
d="M295 547q93 0 153.5 -57t71.5 -132h-92q-10 48 -48 78.5t-91 30.5q-65 0 -110 -51t-45 -147q0 -97 45 -149.5t110 -52.5q55 0 94 31.5t49 76.5h94q-15 -78 -81.5 -133t-158.5 -55q-115 0 -183 78t-68 203q0 122 71 200.5t189 78.5zM334 725l129 -116h-96l-79 54l-79 -54
h-96l132 116h89z" />
    <glyph glyph-name="Cdotaccent" unicode="&#x10a;" horiz-adv-x="726" 
d="M595 231h99q-23 -117 -108 -180.5t-206 -63.5q-153 0 -241 104.5t-88 272.5t92 271t245 103q114 0 196 -64.5t106 -179.5h-99q-16 71 -70.5 114.5t-137.5 43.5q-100 0 -164 -76t-64 -212t64 -213.5t167 -77.5q84 0 137.5 42.5t71.5 115.5zM343 880h91v-99h-91v99z" />
    <glyph glyph-name="cdotaccent" unicode="&#x10b;" horiz-adv-x="557" 
d="M295 547q93 0 153.5 -57t71.5 -132h-92q-10 48 -48 78.5t-91 30.5q-65 0 -110 -51t-45 -147q0 -97 45 -149.5t110 -52.5q55 0 94 31.5t49 76.5h94q-15 -78 -81.5 -133t-158.5 -55q-115 0 -183 78t-68 203q0 122 71 200.5t189 78.5zM242 725h91v-99h-91v99z" />
    <glyph glyph-name="Ccaron" unicode="&#x10c;" horiz-adv-x="726" 
d="M595 231h99q-23 -117 -108 -180.5t-206 -63.5q-153 0 -241 104.5t-88 272.5t92 271t245 103q114 0 196 -64.5t106 -179.5h-99q-16 71 -70.5 114.5t-137.5 43.5q-100 0 -164 -76t-64 -212t64 -213.5t167 -77.5q84 0 137.5 42.5t71.5 115.5zM344 773l-131 113h107l67 -56
l69 56h107l-135 -113h-84z" />
    <glyph glyph-name="ccaron" unicode="&#x10d;" horiz-adv-x="557" 
d="M295 547q93 0 153.5 -57t71.5 -132h-92q-10 48 -48 78.5t-91 30.5q-65 0 -110 -51t-45 -147q0 -97 45 -149.5t110 -52.5q55 0 94 31.5t49 76.5h94q-15 -78 -81.5 -133t-158.5 -55q-115 0 -183 78t-68 203q0 122 71 200.5t189 78.5zM242 609l-129 116h96l78 -54l80 54h96
l-133 -116h-88z" />
    <glyph glyph-name="Dcaron" unicode="&#x10e;" horiz-adv-x="730" 
d="M575 363q0 71 -17 123t-43 81t-67 45.5t-78.5 21.5t-88.5 5h-93v-553h93q51 0 88.5 5t78.5 21.5t67 46t43 81t17 123.5zM86 725h198q90 0 159 -18.5t123.5 -59t83.5 -112.5t29 -172q0 -195 -104.5 -279t-290.5 -84h-198v725zM318 773l-131 113h107l67 -56l69 56h107
l-135 -113h-84z" />
    <glyph glyph-name="dcaron" unicode="&#x10f;" horiz-adv-x="678" 
d="M698 725l-70 -170h-58l30 170h98zM441 453v272h91v-725h-91v81q-54 -94 -176 -94q-97 0 -163.5 75.5t-66.5 204.5q0 128 66.5 204t163.5 76q122 0 176 -94zM445 267q0 100 -45.5 151t-111.5 51q-71 0 -112.5 -53.5t-41.5 -148.5t41.5 -148.5t112.5 -53.5q66 0 111.5 51
t45.5 151z" />
    <glyph glyph-name="Dcroat" unicode="&#x110;" horiz-adv-x="729" 
d="M86 725h198q90 0 159 -18.5t123.5 -59t83.5 -112.5t29 -172q0 -195 -104.5 -279t-290.5 -84h-198v323h-64v90h64v312zM575 363q0 71 -17 123t-43 81t-67 45.5t-78.5 21.5t-88.5 5h-93v-226h159v-90h-159v-237h93q51 0 88.5 5t78.5 21.5t67 46t43 81t17 123.5z" />
    <glyph glyph-name="dcroat" unicode="&#x111;" horiz-adv-x="604" 
d="M441 453v125h-126v75h126v72h91v-72h71v-75h-71v-578h-91v81q-54 -94 -176 -94q-97 0 -163.5 75.5t-66.5 204.5q0 128 66.5 204t163.5 76q122 0 176 -94zM445 267q0 100 -45.5 151t-111.5 51q-71 0 -112.5 -53.5t-41.5 -148.5t41.5 -148.5t112.5 -53.5q66 0 111.5 51
t45.5 151z" />
    <glyph glyph-name="Emacron" unicode="&#x112;" horiz-adv-x="613" 
d="M86 0v725h492v-88h-390v-220h367v-88h-367v-241h390v-88h-492zM485 791h-300v75h300v-75z" />
    <glyph glyph-name="emacron" unicode="&#x113;" horiz-adv-x="581" 
d="M547 239h-414q2 -82 51.5 -127t114.5 -45q108 0 147 89h94q-19 -73 -83 -121t-158 -48q-124 0 -194 79t-70 202q0 126 74 202.5t187 76.5q121 0 190 -88.5t61 -219.5zM296 469q-65 0 -110.5 -38t-51.5 -114h317q-2 61 -44 106.5t-111 45.5zM438 635h-300v75h300v-75z" />
    <glyph glyph-name="Ebreve" unicode="&#x114;" horiz-adv-x="613" 
d="M86 0v725h492v-88h-390v-220h367v-88h-367v-241h390v-88h-492zM413 886h77q-6 -55 -45.5 -87t-113.5 -32q-140 0 -156 119h77q9 -58 80 -58t81 58z" />
    <glyph glyph-name="ebreve" unicode="&#x115;" horiz-adv-x="581" 
d="M547 239h-414q2 -82 51.5 -127t114.5 -45q108 0 147 89h94q-19 -73 -83 -121t-158 -48q-124 0 -194 79t-70 202q0 126 74 202.5t187 76.5q121 0 190 -88.5t61 -219.5zM296 469q-65 0 -110.5 -38t-51.5 -114h317q-2 61 -44 106.5t-111 45.5zM376 725h71
q-16 -121 -160 -121q-76 0 -114.5 35t-42.5 86h71q8 -61 87 -61q80 0 88 61z" />
    <glyph glyph-name="Edotaccent" unicode="&#x116;" horiz-adv-x="613" 
d="M86 0v725h492v-88h-390v-220h367v-88h-367v-241h390v-88h-492zM287 880h91v-99h-91v99z" />
    <glyph glyph-name="edotaccent" unicode="&#x117;" horiz-adv-x="581" 
d="M547 239h-414q2 -82 51.5 -127t114.5 -45q108 0 147 89h94q-19 -73 -83 -121t-158 -48q-124 0 -194 79t-70 202q0 126 74 202.5t187 76.5q121 0 190 -88.5t61 -219.5zM296 469q-65 0 -110.5 -38t-51.5 -114h317q-2 61 -44 106.5t-111 45.5zM243 725h91v-99h-91v99z" />
    <glyph glyph-name="Eogonek" unicode="&#x118;" horiz-adv-x="613" 
d="M86 0v725h492v-88h-390v-220h367v-88h-367v-241h390v-88h-492zM476 0h102q-88 -43 -88 -80q0 -23 13.5 -34t33.5 -11q21 0 41 9v-61q-27 -11 -60 -11q-46 0 -78.5 23t-32.5 72q0 55 69 93z" />
    <glyph glyph-name="eogonek" unicode="&#x119;" horiz-adv-x="581" 
d="M300 -13h-1q-124 0 -194 79t-70 202q0 126 74 202.5t187 76.5q121 0 190 -88.5t61 -219.5h-414q2 -82 51.5 -127t114.5 -45q108 0 147 89h94q-25 -95 -115 -141l2 1q-33 -20 -56.5 -48t-23.5 -47q0 -45 55 -45q20 0 42 6v-61q-27 -9 -64 -9q-48 0 -82 22t-34 74
q0 37 36 79zM296 469q-65 0 -110.5 -38t-51.5 -114h317q-2 61 -44 106.5t-111 45.5z" />
    <glyph glyph-name="Ecaron" unicode="&#x11a;" horiz-adv-x="613" 
d="M86 0v725h492v-88h-390v-220h367v-88h-367v-241h390v-88h-492zM298 773l-131 113h107l67 -56l69 56h107l-135 -113h-84z" />
    <glyph glyph-name="ecaron" unicode="&#x11b;" horiz-adv-x="581" 
d="M547 239h-414q2 -82 51.5 -127t114.5 -45q108 0 147 89h94q-19 -73 -83 -121t-158 -48q-124 0 -194 79t-70 202q0 126 74 202.5t187 76.5q121 0 190 -88.5t61 -219.5zM296 469q-65 0 -110.5 -38t-51.5 -114h317q-2 61 -44 106.5t-111 45.5zM242 609l-129 116h96l78 -54
l80 54h96l-133 -116h-88z" />
    <glyph glyph-name="Gcircumflex" unicode="&#x11c;" horiz-adv-x="770" 
d="M388 738q114 0 196 -60t104 -164h-99q-19 64 -70.5 101t-135.5 37q-100 0 -164 -76t-64 -212q0 -135 63 -213t165 -78q39 0 74.5 9t68 29.5t52 59t19.5 92.5v19h-192v88h288v-370h-80l-5 91q-65 -104 -229 -104q-153 0 -240.5 104.5t-87.5 272.5t92 271t245 103zM430 886
l132 -113h-107l-68 56l-68 -56h-107l135 113h83z" />
    <glyph glyph-name="gcircumflex" unicode="&#x11d;" horiz-adv-x="597" 
d="M434 453v85h91v-466q0 -133 -51 -189q-62 -71 -186 -71q-93 0 -150.5 42t-70.5 123h97q19 -85 125 -85q73 0 110 40q18 20 26.5 44.5t8.5 74.5v51q-54 -93 -171 -93q-94 0 -161 72.5t-67 196.5t67 196.5t161 72.5q117 0 171 -94zM438 278q0 96 -43.5 143.5t-108.5 47.5
q-68 0 -110 -50.5t-42 -140.5q0 -91 42 -141.5t110 -50.5q66 0 109 47.5t43 144.5zM334 725l129 -116h-96l-79 54l-79 -54h-96l132 116h89z" />
    <glyph glyph-name="Gbreve" unicode="&#x11e;" horiz-adv-x="770" 
d="M388 738q114 0 196 -60t104 -164h-99q-19 64 -70.5 101t-135.5 37q-100 0 -164 -76t-64 -212q0 -135 63 -213t165 -78q39 0 74.5 9t68 29.5t52 59t19.5 92.5v19h-192v88h288v-370h-80l-5 91q-65 -104 -229 -104q-153 0 -240.5 104.5t-87.5 272.5t92 271t245 103zM466 886
h77q-6 -55 -45.5 -87t-113.5 -32q-140 0 -156 119h77q9 -58 80 -58t81 58z" />
    <glyph glyph-name="gbreve" unicode="&#x11f;" horiz-adv-x="597" 
d="M434 453v85h91v-466q0 -133 -51 -189q-62 -71 -186 -71q-93 0 -150.5 42t-70.5 123h97q19 -85 125 -85q73 0 110 40q18 20 26.5 44.5t8.5 74.5v51q-54 -93 -171 -93q-94 0 -161 72.5t-67 196.5t67 196.5t161 72.5q117 0 171 -94zM438 278q0 96 -43.5 143.5t-108.5 47.5
q-68 0 -110 -50.5t-42 -140.5q0 -91 42 -141.5t110 -50.5q66 0 109 47.5t43 144.5zM370 725h71q-16 -121 -160 -121q-76 0 -114.5 35t-42.5 86h71q8 -61 87 -61q80 0 88 61z" />
    <glyph glyph-name="Gdotaccent" unicode="&#x120;" horiz-adv-x="770" 
d="M388 738q114 0 196 -60t104 -164h-99q-19 64 -70.5 101t-135.5 37q-100 0 -164 -76t-64 -212q0 -135 63 -213t165 -78q39 0 74.5 9t68 29.5t52 59t19.5 92.5v19h-192v88h288v-370h-80l-5 91q-65 -104 -229 -104q-153 0 -240.5 104.5t-87.5 272.5t92 271t245 103zM342 880
h91v-99h-91v99z" />
    <glyph glyph-name="gdotaccent" unicode="&#x121;" horiz-adv-x="597" 
d="M434 453v85h91v-466q0 -133 -51 -189q-62 -71 -186 -71q-93 0 -150.5 42t-70.5 123h97q19 -85 125 -85q73 0 110 40q18 20 26.5 44.5t8.5 74.5v51q-54 -93 -171 -93q-94 0 -161 72.5t-67 196.5t67 196.5t161 72.5q117 0 171 -94zM438 278q0 96 -43.5 143.5t-108.5 47.5
q-68 0 -110 -50.5t-42 -140.5q0 -91 42 -141.5t110 -50.5q66 0 109 47.5t43 144.5zM247 725h91v-99h-91v99z" />
    <glyph glyph-name="uni0122" unicode="&#x122;" horiz-adv-x="770" 
d="M388 738q114 0 196 -60t104 -164h-99q-19 64 -70.5 101t-135.5 37q-100 0 -164 -76t-64 -212q0 -135 63 -213t165 -78q39 0 74.5 9t68 29.5t52 59t19.5 92.5v19h-192v88h288v-370h-80l-5 91q-65 -104 -229 -104q-153 0 -240.5 104.5t-87.5 272.5t92 271t245 103z
M326 -125v89h95v-95l-44 -90h-54l39 96h-36z" />
    <glyph glyph-name="uni0123" unicode="&#x123;" horiz-adv-x="597" 
d="M332 690v-90h-95v96l44 89h54l-39 -95h36zM434 453v85h91v-466q0 -133 -51 -189q-62 -71 -186 -71q-93 0 -150.5 42t-70.5 123h97q19 -85 125 -85q73 0 110 40q18 20 26.5 44.5t8.5 74.5v51q-54 -93 -171 -93q-94 0 -161 72.5t-67 196.5t67 196.5t161 72.5q117 0 171 -94
zM438 278q0 96 -43.5 143.5t-108.5 47.5q-68 0 -110 -50.5t-42 -140.5q0 -91 42 -141.5t110 -50.5q66 0 109 47.5t43 144.5z" />
    <glyph glyph-name="Hcircumflex" unicode="&#x124;" horiz-adv-x="757" 
d="M569 725h102v-725h-102v329h-381v-329h-102v725h102v-308h381v308zM421 886l132 -113h-107l-68 56l-68 -56h-107l135 113h83z" />
    <glyph glyph-name="hcircumflex" unicode="&#x125;" horiz-adv-x="578" 
d="M163 725v-268q55 90 174 90q177 0 177 -207v-340h-91v313q0 74 -23.5 114.5t-94.5 40.5q-67 0 -104.5 -45t-37.5 -131v-292h-91v725h91zM161 886l132 -113h-107l-68 56l-68 -56h-107l135 113h83z" />
    <glyph glyph-name="Hbar" unicode="&#x126;" horiz-adv-x="758" 
d="M569 725h102v-128h67v-80h-67v-517h-102v329h-381v-329h-102v517h-66v80h66v128h102v-128h381v128zM188 417h381v100h-381v-100z" />
    <glyph glyph-name="hbar" unicode="&#x127;" horiz-adv-x="578" 
d="M163 725v-72h125v-75h-125v-121q55 90 174 90q177 0 177 -207v-340h-91v313q0 74 -23.5 114.5t-94.5 40.5q-67 0 -104.5 -45t-37.5 -131v-292h-91v578h-84v75h84v72h91z" />
    <glyph glyph-name="Itilde" unicode="&#x128;" horiz-adv-x="274" 
d="M188 725v-725h-102v725h102zM204 840q41 0 47 45h71q-11 -59 -42 -86t-74 -27q-33 0 -75 23.5t-61 23.5q-40 0 -45 -44h-71q9 56 40 84t75 28q32 0 73 -23.5t62 -23.5z" />
    <glyph glyph-name="itilde" unicode="&#x129;" horiz-adv-x="235" 
d="M72 538h91v-538h-91v538zM184 680q41 0 47 45h71q-11 -59 -42 -86t-74 -27q-33 0 -75 24t-61 24q-40 0 -45 -44h-71q9 56 40 84t75 28q32 0 73 -24t62 -24z" />
    <glyph glyph-name="Imacron" unicode="&#x12a;" horiz-adv-x="274" 
d="M188 725v-725h-102v725h102zM288 791h-300v75h300v-75z" />
    <glyph glyph-name="imacron" unicode="&#x12b;" horiz-adv-x="235" 
d="M72 538h91v-538h-91v538zM268 635h-300v75h300v-75z" />
    <glyph glyph-name="Ibreve" unicode="&#x12c;" horiz-adv-x="274" 
d="M188 725v-725h-102v725h102zM219 886h77q-6 -55 -45.5 -87t-113.5 -32q-140 0 -156 119h77q9 -58 80 -58t81 58z" />
    <glyph glyph-name="ibreve" unicode="&#x12d;" horiz-adv-x="235" 
d="M72 538h91v-538h-91v538zM206 725h71q-16 -121 -160 -121q-76 0 -114.5 35t-42.5 86h71q8 -61 87 -61q80 0 88 61z" />
    <glyph glyph-name="Iogonek" unicode="&#x12e;" horiz-adv-x="274" 
d="M188 725v-725h-102v725h102zM87 0h102q-88 -43 -88 -80q0 -23 13.5 -34t33.5 -11q22 0 41 9v-61q-27 -11 -60 -11q-46 0 -78.5 23t-32.5 72q0 55 69 93z" />
    <glyph glyph-name="iogonek" unicode="&#x12f;" horiz-adv-x="235" 
d="M72 0v538h91v-538q-98 -41 -98 -85q0 -39 55 -39q20 0 42 6v-61q-27 -9 -64 -9q-48 0 -82 21t-34 69q0 60 90 98zM72 725h91v-110h-91v110z" />
    <glyph glyph-name="Idotaccent" unicode="&#x130;" horiz-adv-x="274" 
d="M188 725v-725h-102v725h102zM92 880h91v-99h-91v99z" />
    <glyph glyph-name="dotlessi" unicode="&#x131;" horiz-adv-x="235" 
d="M72 538h91v-538h-91v538z" />
    <glyph glyph-name="Jcircumflex" unicode="&#x134;" horiz-adv-x="552" 
d="M364 231v494h102v-495q0 -118 -60 -180.5t-168 -62.5t-167.5 60.5t-59.5 176.5h95q0 -72 37.5 -113t94.5 -41q126 0 126 161zM458 886l132 -113h-107l-68 56l-68 -56h-107l135 113h83z" />
    <glyph glyph-name="jcircumflex" unicode="&#x135;" horiz-adv-x="235" 
d="M72 -29v567h91v-565q0 -86 -25.5 -117t-101.5 -31h-46v76h26q35 0 45.5 13.5t10.5 56.5zM164 725l129 -116h-96l-79 54l-79 -54h-96l132 116h89z" />
    <glyph glyph-name="uni0136" unicode="&#x136;" horiz-adv-x="666" 
d="M188 725v-365l327 365h127l-271 -296l302 -429h-122l-249 354l-114 -126v-228h-102v725h102zM313 -125v89h95v-95l-44 -90h-54l39 96h-36z" />
    <glyph glyph-name="uni0137" unicode="&#x137;" horiz-adv-x="505" 
d="M72 725h91v-429l217 242h112l-205 -223l233 -315h-111l-183 248l-63 -68v-180h-91v725zM234 -125v89h95v-95l-44 -90h-54l39 96h-36z" />
    <glyph glyph-name="Lacute" unicode="&#x139;" horiz-adv-x="571" 
d="M188 725v-637h383v-88h-485v725h102zM327 886l-149 -113h-90l110 113h129z" />
    <glyph glyph-name="lacute" unicode="&#x13a;" horiz-adv-x="235" 
d="M163 725v-725h-91v725h91zM311 886l-149 -113h-90l110 113h129z" />
    <glyph glyph-name="uni013B" unicode="&#x13b;" horiz-adv-x="571" 
d="M188 725v-637h383v-88h-485v725h102zM282 -125v89h95v-95l-44 -90h-54l39 96h-36z" />
    <glyph glyph-name="uni013C" unicode="&#x13c;" horiz-adv-x="235" 
d="M163 725v-725h-91v725h91zM71 -125v89h95v-95l-44 -90h-54l39 96h-36z" />
    <glyph glyph-name="Lcaron" unicode="&#x13d;" horiz-adv-x="571" 
d="M188 725v-637h383v-88h-485v725h102zM408 725l-70 -170h-58l30 170h98z" />
    <glyph glyph-name="lcaron" unicode="&#x13e;" horiz-adv-x="312" 
d="M332 725l-70 -170h-58l30 170h98zM163 725v-725h-91v725h91z" />
    <glyph glyph-name="Ldot" unicode="&#x13f;" horiz-adv-x="571" 
d="M188 725v-637h383v-88h-485v725h102zM377 467h91v-99h-91v99z" />
    <glyph glyph-name="ldot" unicode="&#x140;" horiz-adv-x="326" 
d="M163 725v-725h-91v725h91zM235 459h91v-99h-91v99z" />
    <glyph glyph-name="Lslash" unicode="&#x141;" horiz-adv-x="571" 
d="M188 725v-312l189 129v-91l-189 -129v-234h383v-88h-485v252l-86 -59v91l86 59v382h102z" />
    <glyph glyph-name="lslash" unicode="&#x142;" horiz-adv-x="276" 
d="M183 725v-270l73 50v-77l-73 -50v-378h-91v316l-72 -49v76l72 49v333h91z" />
    <glyph glyph-name="Nacute" unicode="&#x143;" horiz-adv-x="755" 
d="M669 0h-149l-332 619v-619h-102v725h150l331 -617v617h102v-725zM571 886l-149 -113h-90l110 113h129z" />
    <glyph glyph-name="nacute" unicode="&#x144;" horiz-adv-x="578" 
d="M163 538v-81q55 90 174 90q177 0 177 -207v-340h-91v313q0 74 -23.5 114.5t-94.5 40.5q-67 0 -104.5 -45t-37.5 -131v-292h-91v538h91zM462 725l-131 -116h-76l90 116h117z" />
    <glyph glyph-name="uni0145" unicode="&#x145;" horiz-adv-x="755" 
d="M669 0h-149l-332 619v-619h-102v725h150l331 -617v617h102v-725zM331 -125v89h95v-95l-44 -90h-54l39 96h-36z" />
    <glyph glyph-name="uni0146" unicode="&#x146;" horiz-adv-x="578" 
d="M163 538v-81q55 90 174 90q177 0 177 -207v-340h-91v313q0 74 -23.5 114.5t-94.5 40.5q-67 0 -104.5 -45t-37.5 -131v-292h-91v538h91zM243 -125v89h95v-95l-44 -90h-54l39 96h-36z" />
    <glyph glyph-name="Ncaron" unicode="&#x147;" horiz-adv-x="755" 
d="M669 0h-149l-332 619v-619h-102v725h150l331 -617v617h102v-725zM356 773l-131 113h107l67 -56l69 56h107l-135 -113h-84z" />
    <glyph glyph-name="ncaron" unicode="&#x148;" horiz-adv-x="578" 
d="M163 538v-81q55 90 174 90q177 0 177 -207v-340h-91v313q0 74 -23.5 114.5t-94.5 40.5q-67 0 -104.5 -45t-37.5 -131v-292h-91v538h91zM257 609l-129 116h96l78 -54l80 54h96l-133 -116h-88z" />
    <glyph glyph-name="Eng" unicode="&#x14a;" horiz-adv-x="755" 
d="M567 3l-379 614v-617h-102v725h153l328 -541v541h102v-740q0 -102 -37 -136.5t-130 -34.5h-42v91h22q56 0 70.5 15.5t14.5 73.5v9z" />
    <glyph glyph-name="eng" unicode="&#x14b;" horiz-adv-x="578" 
d="M423 -28v341q0 74 -23.5 114t-94.5 40q-67 0 -104.5 -44.5t-37.5 -130.5v-292h-91v538h91v-81q55 90 174 90q177 0 177 -207v-377q0 -84 -24.5 -111t-102.5 -27h-46v77h26q35 0 45.5 13.5t10.5 56.5z" />
    <glyph glyph-name="Omacron" unicode="&#x14c;" horiz-adv-x="782" 
d="M155 363q0 -136 66.5 -213t169.5 -77t169.5 77t66.5 213t-66.5 212.5t-169.5 76.5t-169.5 -76.5t-66.5 -212.5zM731 363q0 -166 -92.5 -271t-247.5 -105t-247.5 105t-92.5 271t92.5 270.5t247.5 104.5t247.5 -104.5t92.5 -270.5zM541 791h-300v75h300v-75z" />
    <glyph glyph-name="omacron" unicode="&#x14d;" horiz-adv-x="590" 
d="M134 267q0 -101 46 -150.5t115 -49.5q68 0 114.5 51t46.5 149q0 101 -46 150.5t-115 49.5t-115 -48.5t-46 -151.5zM295 547q104 0 181 -72t77 -208t-77 -208t-181 -72t-181 72t-77 208t77 208t181 72zM442 635h-300v75h300v-75z" />
    <glyph glyph-name="Obreve" unicode="&#x14e;" horiz-adv-x="782" 
d="M155 363q0 -136 66.5 -213t169.5 -77t169.5 77t66.5 213t-66.5 212.5t-169.5 76.5t-169.5 -76.5t-66.5 -212.5zM731 363q0 -166 -92.5 -271t-247.5 -105t-247.5 105t-92.5 271t92.5 270.5t247.5 104.5t247.5 -104.5t92.5 -270.5zM472 886h77q-6 -55 -45.5 -87t-113.5 -32
q-140 0 -156 119h77q9 -58 80 -58t81 58z" />
    <glyph glyph-name="obreve" unicode="&#x14f;" horiz-adv-x="590" 
d="M134 267q0 -101 46 -150.5t115 -49.5q68 0 114.5 51t46.5 149q0 101 -46 150.5t-115 49.5t-115 -48.5t-46 -151.5zM295 547q104 0 181 -72t77 -208t-77 -208t-181 -72t-181 72t-77 208t77 208t181 72zM380 725h71q-16 -121 -160 -121q-76 0 -114.5 35t-42.5 86h71
q8 -61 87 -61q80 0 88 61z" />
    <glyph glyph-name="Ohungarumlaut" unicode="&#x150;" horiz-adv-x="782" 
d="M155 363q0 -136 66.5 -213t169.5 -77t169.5 77t66.5 213t-66.5 212.5t-169.5 76.5t-169.5 -76.5t-66.5 -212.5zM731 363q0 -166 -92.5 -271t-247.5 -105t-247.5 105t-92.5 271t92.5 270.5t247.5 104.5t247.5 -104.5t92.5 -270.5zM502 886l-149 -113h-90l110 113h129z
M669 886l-149 -113h-90l110 113h129z" />
    <glyph glyph-name="ohungarumlaut" unicode="&#x151;" horiz-adv-x="590" 
d="M134 267q0 -101 46 -150.5t115 -49.5q68 0 114.5 51t46.5 149q0 101 -46 150.5t-115 49.5t-115 -48.5t-46 -151.5zM295 547q104 0 181 -72t77 -208t-77 -208t-181 -72t-181 72t-77 208t77 208t181 72zM382 725l-131 -116h-76l90 116h117zM540 725l-130 -116h-77l91 116
h116z" />
    <glyph glyph-name="OE" unicode="&#x152;" horiz-adv-x="1134" 
d="M627 363q0 135 -66.5 212t-169.5 77t-169.5 -77t-66.5 -212q0 -136 66.5 -213t169.5 -77t169.5 77t66.5 213zM629 0v99q-82 -112 -239 -112q-154 0 -246.5 105t-92.5 271q0 164 95.5 269.5t245.5 105.5q155 0 237 -111v98h470v-88h-389v-220h366v-88h-366v-241h389v-88
h-470z" />
    <glyph glyph-name="oe" unicode="&#x153;" horiz-adv-x="993" 
d="M708 469q-65 0 -110.5 -38t-51.5 -114h317q-2 61 -44 106.5t-111 45.5zM295 67q68 0 114.5 51t46.5 149q0 101 -46 150.5t-115 49.5t-115 -48.5t-46 -151.5q0 -101 46 -150.5t115 -49.5zM858 156h94q-19 -73 -83 -121t-158 -48q-147 0 -212 112q-32 -56 -86.5 -84
t-117.5 -28q-104 0 -181 72t-77 208t77 208t181 72q64 0 118.5 -28.5t86.5 -85.5q68 114 208 114q121 0 190 -88.5t61 -219.5h-414q4 -82 52.5 -127t113.5 -45q108 0 147 89z" />
    <glyph glyph-name="Racute" unicode="&#x154;" horiz-adv-x="679" 
d="M528 0l-157 306q-19 -1 -55 -1h-128v-305h-102v725h230q72 0 122.5 -8.5t93.5 -30.5t64.5 -64.5t21.5 -105.5q0 -155 -144 -194l168 -322h-114zM324 639h-136v-248h136q46 0 75.5 3.5t58 15.5t42 38t13.5 66q0 33 -10 56t-25.5 36.5t-41.5 21t-51 9.5t-61 2zM518 886
l-149 -113h-90l110 113h129z" />
    <glyph glyph-name="racute" unicode="&#x155;" horiz-adv-x="355" 
d="M340 540v-97q-25 4 -51 4q-64 0 -95 -38.5t-31 -126.5v-282h-91v538h89v-94q41 92 152 97q16 0 27 -1zM375 725l-131 -116h-76l90 116h117z" />
    <glyph glyph-name="uni0156" unicode="&#x156;" horiz-adv-x="679" 
d="M528 0l-157 306q-19 -1 -55 -1h-128v-305h-102v725h230q72 0 122.5 -8.5t93.5 -30.5t64.5 -64.5t21.5 -105.5q0 -155 -144 -194l168 -322h-114zM324 639h-136v-248h136q46 0 75.5 3.5t58 15.5t42 38t13.5 66q0 33 -10 56t-25.5 36.5t-41.5 21t-51 9.5t-61 2zM298 -125v89
h95v-95l-44 -90h-54l39 96h-36z" />
    <glyph glyph-name="uni0157" unicode="&#x157;" horiz-adv-x="355" 
d="M340 540v-97q-25 4 -51 4q-64 0 -95 -38.5t-31 -126.5v-282h-91v538h89v-94q41 92 152 97q16 0 27 -1zM71 -125v89h95v-95l-44 -90h-54l39 96h-36z" />
    <glyph glyph-name="Rcaron" unicode="&#x158;" horiz-adv-x="679" 
d="M528 0l-157 306q-19 -1 -55 -1h-128v-305h-102v725h230q72 0 122.5 -8.5t93.5 -30.5t64.5 -64.5t21.5 -105.5q0 -155 -144 -194l168 -322h-114zM324 639h-136v-248h136q46 0 75.5 3.5t58 15.5t42 38t13.5 66q0 33 -10 56t-25.5 36.5t-41.5 21t-51 9.5t-61 2zM300 773
l-131 113h107l67 -56l69 56h107l-135 -113h-84z" />
    <glyph glyph-name="rcaron" unicode="&#x159;" horiz-adv-x="355" 
d="M340 540v-97q-25 4 -51 4q-64 0 -95 -38.5t-31 -126.5v-282h-91v538h89v-94q41 92 152 97q16 0 27 -1zM160 609l-129 116h96l78 -54l80 54h96l-133 -116h-88z" />
    <glyph glyph-name="Sacute" unicode="&#x15a;" horiz-adv-x="641" 
d="M56 540q0 65 42 112t99.5 66.5t120.5 19.5q105 0 179.5 -49.5t95.5 -148.5h-99q-17 58 -68 85t-112 27q-54 0 -104 -26t-50 -80q0 -85 118 -111l84 -19q39 -8 68.5 -17t64.5 -26t57.5 -38t38 -55t15.5 -76q0 -101 -80.5 -159t-195.5 -58q-127 0 -205.5 64t-92.5 174h100
q29 -152 200 -152q80 0 124.5 33.5t44.5 88.5q0 54 -40 82t-116 46l-90 19q-86 19 -142.5 67t-56.5 131zM513 886l-149 -113h-90l110 113h129z" />
    <glyph glyph-name="sacute" unicode="&#x15b;" horiz-adv-x="525" 
d="M475 381h-95q-21 89 -127 89q-45 0 -79 -17t-34 -51q0 -31 20.5 -47.5t61.5 -25.5l76 -15q85 -16 134.5 -52.5t49.5 -107.5q0 -78 -62 -122.5t-157 -44.5q-100 0 -161 55t-70 132h96q24 -110 137 -110q54 0 89.5 21.5t35.5 58.5q0 38 -29 58t-80 31l-80 16
q-68 15 -110.5 48t-42.5 101q0 69 61.5 109.5t153.5 40.5q87 0 143 -44.5t69 -122.5zM426 725l-131 -116h-76l90 116h117z" />
    <glyph glyph-name="Scircumflex" unicode="&#x15c;" horiz-adv-x="641" 
d="M56 540q0 65 42 112t99.5 66.5t120.5 19.5q105 0 179.5 -49.5t95.5 -148.5h-99q-17 58 -68 85t-112 27q-54 0 -104 -26t-50 -80q0 -85 118 -111l84 -19q39 -8 68.5 -17t64.5 -26t57.5 -38t38 -55t15.5 -76q0 -101 -80.5 -159t-195.5 -58q-127 0 -205.5 64t-92.5 174h100
q29 -152 200 -152q80 0 124.5 33.5t44.5 88.5q0 54 -40 82t-116 46l-90 19q-86 19 -142.5 67t-56.5 131zM370 886l132 -113h-107l-68 56l-68 -56h-107l135 113h83z" />
    <glyph glyph-name="scircumflex" unicode="&#x15d;" horiz-adv-x="525" 
d="M475 381h-95q-21 89 -127 89q-45 0 -79 -17t-34 -51q0 -31 20.5 -47.5t61.5 -25.5l76 -15q85 -16 134.5 -52.5t49.5 -107.5q0 -78 -62 -122.5t-157 -44.5q-100 0 -161 55t-70 132h96q24 -110 137 -110q54 0 89.5 21.5t35.5 58.5q0 38 -29 58t-80 31l-80 16
q-68 15 -110.5 48t-42.5 101q0 69 61.5 109.5t153.5 40.5q87 0 143 -44.5t69 -122.5zM313 725l129 -116h-96l-79 54l-79 -54h-96l132 116h89z" />
    <glyph glyph-name="Scedilla" unicode="&#x15e;" horiz-adv-x="641" 
d="M56 540q0 65 42 112t99.5 66.5t120.5 19.5q105 0 179.5 -49.5t95.5 -148.5h-99q-17 58 -68 85t-112 27q-54 0 -104 -26t-50 -80q0 -85 118 -111l84 -19q39 -8 68.5 -17t64.5 -26t57.5 -38t38 -55t15.5 -76q0 -101 -80.5 -159t-195.5 -58q-127 0 -205.5 64t-92.5 174h100
q29 -152 200 -152q80 0 124.5 33.5t44.5 88.5q0 54 -40 82t-116 46l-90 19q-86 19 -142.5 67t-56.5 131zM219 -176l16 40q30 -14 58 -14q61 0 61 32q0 30 -44 30q-24 0 -38 -9l-30 17l51 83h53l-32 -51q15 3 30 3q36 0 56 -18.5t20 -49.5q0 -37 -33 -59.5t-75 -22.5
q-54 0 -93 19z" />
    <glyph glyph-name="scedilla" unicode="&#x15f;" horiz-adv-x="525" 
d="M475 381h-95q-21 89 -127 89q-45 0 -79 -17t-34 -51q0 -31 20.5 -47.5t61.5 -25.5l76 -15q85 -16 134.5 -52.5t49.5 -107.5q0 -78 -62 -122.5t-157 -44.5q-100 0 -161 55t-70 132h96q24 -110 137 -110q54 0 89.5 21.5t35.5 58.5q0 38 -29 58t-80 31l-80 16
q-68 15 -110.5 48t-42.5 101q0 69 61.5 109.5t153.5 40.5q87 0 143 -44.5t69 -122.5zM157 -176l16 40q30 -14 58 -14q61 0 61 32q0 30 -44 30q-24 0 -38 -9l-30 17l51 83h53l-32 -51q15 3 30 3q36 0 56 -18.5t20 -49.5q0 -37 -33 -59.5t-75 -22.5q-54 0 -93 19z" />
    <glyph glyph-name="Scaron" unicode="&#x160;" horiz-adv-x="641" 
d="M56 540q0 65 42 112t99.5 66.5t120.5 19.5q105 0 179.5 -49.5t95.5 -148.5h-99q-17 58 -68 85t-112 27q-54 0 -104 -26t-50 -80q0 -85 118 -111l84 -19q39 -8 68.5 -17t64.5 -26t57.5 -38t38 -55t15.5 -76q0 -101 -80.5 -159t-195.5 -58q-127 0 -205.5 64t-92.5 174h100
q29 -152 200 -152q80 0 124.5 33.5t44.5 88.5q0 54 -40 82t-116 46l-90 19q-86 19 -142.5 67t-56.5 131zM283 773l-131 113h107l67 -56l69 56h107l-135 -113h-84z" />
    <glyph glyph-name="scaron" unicode="&#x161;" horiz-adv-x="525" 
d="M475 381h-95q-21 89 -127 89q-45 0 -79 -17t-34 -51q0 -31 20.5 -47.5t61.5 -25.5l76 -15q85 -16 134.5 -52.5t49.5 -107.5q0 -78 -62 -122.5t-157 -44.5q-100 0 -161 55t-70 132h96q24 -110 137 -110q54 0 89.5 21.5t35.5 58.5q0 38 -29 58t-80 31l-80 16
q-68 15 -110.5 48t-42.5 101q0 69 61.5 109.5t153.5 40.5q87 0 143 -44.5t69 -122.5zM221 609l-129 116h96l78 -54l80 54h96l-133 -116h-88z" />
    <glyph glyph-name="uni0162" unicode="&#x162;" horiz-adv-x="574" 
d="M236 0v637h-236v88h574v-88h-236v-637h-102zM241 -125v89h95v-95l-44 -90h-54l39 96h-36z" />
    <glyph glyph-name="uni0163" unicode="&#x163;" horiz-adv-x="325" 
d="M98 538v135h91v-135h102v-73h-102v-319q0 -44 9.5 -57t46.5 -13h46v-76h-66q-78 0 -102.5 26t-24.5 109v330h-85v73h85zM106 -125v89h95v-95l-44 -90h-54l39 96h-36z" />
    <glyph glyph-name="Tcaron" unicode="&#x164;" horiz-adv-x="574" 
d="M236 0v637h-236v88h574v-88h-236v-637h-102zM243 773l-131 113h107l67 -56l69 56h107l-135 -113h-84z" />
    <glyph glyph-name="tcaron" unicode="&#x165;" horiz-adv-x="358" 
d="M378 725l-70 -150h-58l30 150h98zM98 538v135h91v-135h102v-73h-102v-319q0 -44 9.5 -57t46.5 -13h46v-76h-66q-78 0 -102.5 26t-24.5 109v330h-85v73h85z" />
    <glyph glyph-name="Tbar" unicode="&#x166;" horiz-adv-x="573" 
d="M236 0v323h-151v90h151v224h-236v88h574v-88h-236v-224h151v-90h-151v-323h-102z" />
    <glyph glyph-name="tbar" unicode="&#x167;" horiz-adv-x="346" 
d="M109 538v135h91v-135h102v-73h-102v-83h102v-75h-102v-161q0 -44 9 -57t47 -13h46v-76h-66q-78 0 -102.5 26t-24.5 109v172h-85v75h85v83h-85v73h85z" />
    <glyph glyph-name="Utilde" unicode="&#x168;" horiz-adv-x="731" 
d="M75 725h102v-441q0 -109 43.5 -159t143.5 -50q101 0 145.5 54.5t44.5 165.5v430h102v-422q0 -162 -68.5 -239t-223.5 -77q-153 0 -221 70.5t-68 237.5v430zM444 840q41 0 47 45h71q-11 -59 -42 -86t-74 -27q-33 0 -75 23.5t-61 23.5q-40 0 -45 -44h-71q9 56 40 84t75 28
q32 0 73 -23.5t62 -23.5z" />
    <glyph glyph-name="utilde" unicode="&#x169;" horiz-adv-x="568" 
d="M405 0v77q-55 -90 -169 -90q-172 0 -172 207v344h91v-317q0 -74 22.5 -114.5t90.5 -40.5q66 0 101.5 45t35.5 131v296h91v-538h-91zM353 680q41 0 47 45h71q-11 -59 -42 -86t-74 -27q-33 0 -75 24t-61 24q-40 0 -45 -44h-71q9 56 40 84t75 28q32 0 73 -24t62 -24z" />
    <glyph glyph-name="Umacron" unicode="&#x16a;" horiz-adv-x="731" 
d="M75 725h102v-441q0 -109 43.5 -159t143.5 -50q101 0 145.5 54.5t44.5 165.5v430h102v-422q0 -162 -68.5 -239t-223.5 -77q-153 0 -221 70.5t-68 237.5v430zM515 791h-300v75h300v-75z" />
    <glyph glyph-name="umacron" unicode="&#x16b;" horiz-adv-x="568" 
d="M405 0v77q-55 -90 -169 -90q-172 0 -172 207v344h91v-317q0 -74 22.5 -114.5t90.5 -40.5q66 0 101.5 45t35.5 131v296h91v-538h-91zM433 635h-300v75h300v-75z" />
    <glyph glyph-name="Ubreve" unicode="&#x16c;" horiz-adv-x="731" 
d="M75 725h102v-441q0 -109 43.5 -159t143.5 -50q101 0 145.5 54.5t44.5 165.5v430h102v-422q0 -162 -68.5 -239t-223.5 -77q-153 0 -221 70.5t-68 237.5v430zM446 886h77q-6 -55 -45.5 -87t-113.5 -32q-140 0 -156 119h77q9 -58 80 -58t81 58z" />
    <glyph glyph-name="ubreve" unicode="&#x16d;" horiz-adv-x="568" 
d="M405 0v77q-55 -90 -169 -90q-172 0 -172 207v344h91v-317q0 -74 22.5 -114.5t90.5 -40.5q66 0 101.5 45t35.5 131v296h91v-538h-91zM371 725h71q-16 -121 -160 -121q-76 0 -114.5 35t-42.5 86h71q8 -61 87 -61q80 0 88 61z" />
    <glyph glyph-name="Uring" unicode="&#x16e;" horiz-adv-x="731" 
d="M75 725h102v-441q0 -109 43.5 -159t143.5 -50q101 0 145.5 54.5t44.5 165.5v430h102v-422q0 -162 -68.5 -239t-223.5 -77q-153 0 -221 70.5t-68 237.5v430zM365 935q39 0 65 -23.5t26 -61.5q0 -37 -26 -61t-65 -24q-38 0 -64 24t-26 61t26 61t64 24zM365 893
q-18 0 -30.5 -12.5t-12.5 -30.5t12.5 -30t30.5 -12t30.5 12t12.5 30t-12.5 30.5t-30.5 12.5z" />
    <glyph glyph-name="uring" unicode="&#x16f;" horiz-adv-x="568" 
d="M405 0v77q-55 -90 -169 -90q-172 0 -172 207v344h91v-317q0 -74 22.5 -114.5t90.5 -40.5q66 0 101.5 45t35.5 131v296h91v-538h-91zM283 770q39 0 65 -23.5t26 -61.5q0 -37 -26 -61t-65 -24q-38 0 -64 24t-26 61t26 61t64 24zM283 728q-18 0 -30.5 -12.5t-12.5 -30.5
t12.5 -30t30.5 -12t30.5 12t12.5 30t-12.5 30.5t-30.5 12.5z" />
    <glyph glyph-name="Uhungarumlaut" unicode="&#x170;" horiz-adv-x="731" 
d="M75 725h102v-441q0 -109 43.5 -159t143.5 -50q101 0 145.5 54.5t44.5 165.5v430h102v-422q0 -162 -68.5 -239t-223.5 -77q-153 0 -221 70.5t-68 237.5v430zM476 886l-149 -113h-90l110 113h129zM643 886l-149 -113h-90l110 113h129z" />
    <glyph glyph-name="uhungarumlaut" unicode="&#x171;" horiz-adv-x="568" 
d="M373 725l-131 -116h-76l90 116h117zM531 725l-130 -116h-77l91 116h116zM405 0v77q-55 -90 -169 -90q-172 0 -172 207v344h91v-317q0 -74 22.5 -114.5t90.5 -40.5q66 0 101.5 45t35.5 131v296h91v-538h-91z" />
    <glyph glyph-name="Uogonek" unicode="&#x172;" horiz-adv-x="731" 
d="M379 -188q-46 0 -78.5 23t-32.5 72q0 46 50 82q-127 8 -185 80t-58 226v430h102v-441q0 -109 43.5 -159t143.5 -50q101 0 145.5 54.5t44.5 165.5v430h102v-422q0 -147 -52.5 -220t-183.5 -98q-27 -6 -48 -25.5t-21 -39.5q0 -23 13.5 -34t33.5 -11q22 0 41 9v-61
q-27 -11 -60 -11z" />
    <glyph glyph-name="uogonek" unicode="&#x173;" horiz-adv-x="571" 
d="M405 0v77q-55 -90 -169 -90q-172 0 -172 207v344h91v-317q0 -74 22.5 -114.5t90.5 -40.5q66 0 101.5 45t35.5 131v296h91v-538h-91zM408 0h91q-98 -41 -98 -85q0 -39 55 -39q20 0 42 6v-61q-27 -9 -64 -9q-48 0 -82 21t-34 69q0 60 90 98z" />
    <glyph glyph-name="Wcircumflex" unicode="&#x174;" horiz-adv-x="922" 
d="M522 725l143 -609l134 609h107l-181 -725h-124l-140 596l-137 -596h-124l-184 725h112l140 -609l134 609h120zM504 886l132 -113h-107l-68 56l-68 -56h-107l135 113h83z" />
    <glyph glyph-name="wcircumflex" unicode="&#x175;" horiz-adv-x="720" 
d="M206 140l107 398h94l107 -398l103 398h98l-155 -538h-83l-119 433l-115 -433h-83l-155 538h98zM401 725l129 -116h-96l-79 54l-79 -54h-96l132 116h89z" />
    <glyph glyph-name="Ycircumflex" unicode="&#x176;" horiz-adv-x="624" 
d="M0 725h112l198 -354l202 354h112l-266 -444v-281h-102v283zM355 886l132 -113h-107l-68 56l-68 -56h-107l135 113h83z" />
    <glyph glyph-name="ycircumflex" unicode="&#x177;" horiz-adv-x="466" 
d="M371 538h95l-192 -561q-22 -63 -40.5 -92.5t-52.5 -44.5t-94 -15h-47v76h37q51 0 73.5 15t39.5 73l4 11l-194 538h101l137 -415zM279 725l129 -116h-96l-79 54l-79 -54h-96l132 116h89z" />
    <glyph glyph-name="Ydieresis" unicode="&#x178;" horiz-adv-x="624" 
d="M0 725h112l198 -354l202 354h112l-266 -444v-281h-102v283zM152 879h91v-99h-91v99zM381 879h92v-99h-92v99z" />
    <glyph glyph-name="Zacute" unicode="&#x179;" horiz-adv-x="633" 
d="M588 725v-88l-426 -549h442v-88h-563v88l427 549h-394v88h514zM516 886l-149 -113h-90l110 113h129z" />
    <glyph glyph-name="zacute" unicode="&#x17a;" horiz-adv-x="488" 
d="M33 0v79l311 380h-291v79h397v-79l-310 -380h316v-79h-423zM413 725l-131 -116h-76l90 116h117z" />
    <glyph glyph-name="Zdotaccent" unicode="&#x17b;" horiz-adv-x="633" 
d="M588 725v-88l-426 -549h442v-88h-563v88l427 549h-394v88h514zM289 880h91v-99h-91v99z" />
    <glyph glyph-name="zdotaccent" unicode="&#x17c;" horiz-adv-x="488" 
d="M33 0v79l311 380h-291v79h397v-79l-310 -380h316v-79h-423zM214 725h91v-99h-91v99z" />
    <glyph glyph-name="Zcaron" unicode="&#x17d;" horiz-adv-x="633" 
d="M588 725v-88l-426 -549h442v-88h-563v88l427 549h-394v88h514zM288 773l-131 113h107l67 -56l69 56h107l-135 -113h-84z" />
    <glyph glyph-name="zcaron" unicode="&#x17e;" horiz-adv-x="488" 
d="M33 0v79l311 380h-291v79h397v-79l-310 -380h316v-79h-423zM218 609l-129 116h96l78 -54l80 54h96l-133 -116h-88z" />
    <glyph glyph-name="uni018F" unicode="&#x18f;" horiz-adv-x="781" 
d="M179 526h-107q31 104 119.5 158t200.5 54q152 0 244 -101t92 -274t-93 -274.5t-245 -101.5q-171 0 -260 119.5t-74 305.5h565q-8 112 -73 176t-157 64q-81 0 -136 -34.5t-76 -91.5zM391 73q95 0 158.5 65.5t71.5 185.5h-459q2 -119 67 -185t162 -66z" />
    <glyph glyph-name="uni0218" unicode="&#x218;" horiz-adv-x="641" 
d="M56 540q0 65 42 112t99.5 66.5t120.5 19.5q105 0 179.5 -49.5t95.5 -148.5h-99q-17 58 -68 85t-112 27q-54 0 -104 -26t-50 -80q0 -85 118 -111l84 -19q39 -8 68.5 -17t64.5 -26t57.5 -38t38 -55t15.5 -76q0 -101 -80.5 -159t-195.5 -58q-127 0 -205.5 64t-92.5 174h100
q29 -152 200 -152q80 0 124.5 33.5t44.5 88.5q0 54 -40 82t-116 46l-90 19q-86 19 -142.5 67t-56.5 131zM273 -125v89h95v-95l-44 -90h-54l39 96h-36z" />
    <glyph glyph-name="uni0219" unicode="&#x219;" horiz-adv-x="525" 
d="M475 381h-95q-21 89 -127 89q-45 0 -79 -17t-34 -51q0 -31 20.5 -47.5t61.5 -25.5l76 -15q85 -16 134.5 -52.5t49.5 -107.5q0 -78 -62 -122.5t-157 -44.5q-100 0 -161 55t-70 132h96q24 -110 137 -110q54 0 89.5 21.5t35.5 58.5q0 38 -29 58t-80 31l-80 16
q-68 15 -110.5 48t-42.5 101q0 69 61.5 109.5t153.5 40.5q87 0 143 -44.5t69 -122.5zM211 -125v89h95v-95l-44 -90h-54l39 96h-36z" />
    <glyph glyph-name="uni021A" unicode="&#x21a;" horiz-adv-x="574" 
d="M236 0v637h-236v88h574v-88h-236v-637h-102zM241 -125v89h95v-95l-44 -90h-54l39 96h-36z" />
    <glyph glyph-name="uni021B" unicode="&#x21b;" horiz-adv-x="325" 
d="M98 538v135h91v-135h102v-73h-102v-319q0 -44 9.5 -57t46.5 -13h46v-76h-66q-78 0 -102.5 26t-24.5 109v330h-85v73h85zM106 -125v89h95v-95l-44 -90h-54l39 96h-36z" />
    <glyph glyph-name="uni0232" unicode="&#x232;" horiz-adv-x="624" 
d="M0 725h112l198 -354l202 354h112l-266 -444v-281h-102v283zM462 791h-300v75h300v-75z" />
    <glyph glyph-name="uni0233" unicode="&#x233;" horiz-adv-x="466" 
d="M371 538h95l-192 -561q-22 -63 -40.5 -92.5t-52.5 -44.5t-94 -15h-47v76h37q51 0 73.5 15t39.5 73l4 11l-194 538h101l137 -415zM383 635h-300v75h300v-75z" />
    <glyph glyph-name="uni0237" unicode="&#x237;" horiz-adv-x="235" 
d="M72 -29v567h91v-565q0 -86 -25.5 -117t-101.5 -31h-46v76h26q35 0 45.5 13.5t10.5 56.5z" />
    <glyph glyph-name="uni0259" unicode="&#x259;" horiz-adv-x="581" 
d="M35 295h414q-2 82 -51.5 127t-114.5 45q-108 0 -147 -89h-94q19 73 83 121t158 48q124 0 194 -79t70 -202q0 -126 -74 -202.5t-187 -76.5q-121 0 -190 88.5t-61 219.5zM286 65q65 0 110.5 38t51.5 114h-317q2 -61 44 -106.5t111 -45.5z" />
    <glyph glyph-name="circumflex" unicode="&#x2c6;" horiz-adv-x="394" 
d="M243 725l129 -116h-96l-79 54l-79 -54h-96l132 116h89z" />
    <glyph glyph-name="caron" unicode="&#x2c7;" horiz-adv-x="394" 
d="M151 609l-129 116h96l78 -54l80 54h96l-133 -116h-88z" />
    <glyph glyph-name="breve" unicode="&#x2d8;" horiz-adv-x="361" 
d="M268 725h71q-16 -121 -160 -121q-76 0 -114.5 35t-42.5 86h71q8 -61 87 -61q80 0 88 61z" />
    <glyph glyph-name="dotaccent" unicode="&#x2d9;" horiz-adv-x="135" 
d="M22 725h91v-99h-91v99z" />
    <glyph glyph-name="ring" unicode="&#x2da;" horiz-adv-x="225" 
d="M112 770q39 0 65 -23.5t26 -61.5q0 -37 -26 -61t-65 -24q-38 0 -64 24t-26 61t26 61t64 24zM112 728q-18 0 -30.5 -12.5t-12.5 -30.5t12.5 -30t30.5 -12t30.5 12t12.5 30t-12.5 30.5t-30.5 12.5z" />
    <glyph glyph-name="ogonek" unicode="&#x2db;" horiz-adv-x="242" 
d="M112 0h91q-98 -41 -98 -85q0 -39 55 -39q20 0 42 6v-61q-27 -9 -64 -9q-48 0 -82 21t-34 69q0 60 90 98z" />
    <glyph glyph-name="tilde" unicode="&#x2dc;" horiz-adv-x="412" 
d="M272 680q41 0 47 45h71q-11 -59 -42 -86t-74 -27q-33 0 -75 24t-61 24q-40 0 -45 -44h-71q9 56 40 84t75 28q32 0 73 -24t62 -24z" />
    <glyph glyph-name="hungarumlaut" unicode="&#x2dd;" horiz-adv-x="409" 
d="M229 725l-131 -116h-76l90 116h117zM387 725l-130 -116h-77l91 116h116z" />
    <glyph glyph-name="uni0326" unicode="&#x326;" horiz-adv-x="142" 
d="M25 -125v89h95v-95l-44 -90h-54l39 96h-36z" />
    <glyph glyph-name="uni032C" unicode="&#x32c;" horiz-adv-x="394" 
d="M162 -138l-140 138h101l73 -71l75 71h101l-143 -138h-67z" />
    <glyph glyph-name="uni0394" unicode="&#x394;" horiz-adv-x="697" 
d="M-5 0l354 727l354 -727h-708zM562 86l-213 444l-213 -444h426z" />
    <glyph glyph-name="uni0394" unicode="&#x2206;" horiz-adv-x="697" 
d="M-5 0l354 727l354 -727h-708zM562 86l-213 444l-213 -444h426z" />
    <glyph glyph-name="uni03A9" unicode="&#x3a9;" horiz-adv-x="794" 
d="M397 738q146 0 250 -85.5t104 -232.5q0 -93 -56 -171.5t-143 -106.5v-56h198v-86h-291v197q88 14 141.5 78.5t53.5 150.5q0 102 -72.5 167.5t-184.5 65.5t-184.5 -65.5t-72.5 -167.5q0 -86 53.5 -150.5t141.5 -78.5v-197h-291v86h198v56q-88 28 -143.5 106.5t-55.5 171.5
q0 147 104 232.5t250 85.5z" />
    <glyph glyph-name="uni03A9" unicode="&#x2126;" horiz-adv-x="794" 
d="M397 738q146 0 250 -85.5t104 -232.5q0 -93 -56 -171.5t-143 -106.5v-56h198v-86h-291v197q88 14 141.5 78.5t53.5 150.5q0 102 -72.5 167.5t-184.5 65.5t-184.5 -65.5t-72.5 -167.5q0 -86 53.5 -150.5t141.5 -78.5v-197h-291v86h198v56q-88 28 -143.5 106.5t-55.5 171.5
q0 147 104 232.5t250 85.5z" />
    <glyph glyph-name="pi" unicode="&#x3c0;" horiz-adv-x="647" 
d="M198 0h-92v452h-74v86h576v-86h-76v-306q0 -44 9.5 -56.5t48.5 -12.5h24v-77h-44q-79 0 -104 26t-25 109v317h-243v-452z" />
    <glyph glyph-name="uni0401" unicode="&#x401;" horiz-adv-x="638" 
d="M96 0v725h492v-88h-390v-220h367v-88h-367v-241h390v-88h-492zM187 879h91v-99h-91v99zM416 879h92v-99h-92v99z" />
    </font>
</defs>
</svg>
